Wreck-It Ralph [2012][1080p BluRay x264][Espanol][Accion][Multihost]

**
=

TITULO ORIGINAL: Wreck-It Ralph
OTROS TITULOS: Rompe Ralph / Ralph el Demoledor
AnO: 2012
DURACION: 101 min.
PAIS: USA
DIRECTOR: Rich Moore
GUION: Phil Johnston
MUSICA: Henry Jackman
FOTOGRAFIA: Animation
REPARTO: Animation
PRODUCTORA: Walt Disney Animation Studios
PREMIOS 2012: Oscar: Nominada a Mejor pelicula de animacion
2012: 5 Premios Annie, incluyendo Mejor pelicula. 10 nominaciones
2012: Critics Choice Awards: Mejor pelicula de animacion
2012: Globos de Oro: Nominada a Mejor pelicula de animacion
2012: Satellite Awards: Nominado a Mejor largometraje de animacion
2012: National Board of Review (NBR): Mejor largometraje de animacion
2012: Producers Guild of America (PGA): Mejor pelicula de animacion
GENERO: Animacion. Fantastico. Comedia | Videojuego. 3-D
FECHA DE ESTRENO MEXICO: 2 de noviembre de 2012
FECHA DE ESTRENO USA: 2 de noviembre de 2012
FECHA DE ESTRENO ESPAnA: 25 de diciembre de 2012

Ralph el Demoledor anhela ser amado y respetado como suele pasar con, Felix el Reparador, el chico bueno del videojuego al que pertenece. El problema es que nadie quiere a los villanos y por eso Ralph sale de su juego y se aventura en un moderno reto que lo podria coronar como el heroe que quiere ser. Sin embargo, todo sale mal para Ralph y, aunque consigue ganar su valiosa medalla, provoca un accidente que podria terminar con todos los juegos de video. Con la ayuda de un curiosa pequenita, Ralph tendra que arreglar todos los problemas antes de que sea demasiado tarde.

Wreck-It Ralph 2012 1080p BluRay x264-SPARKS
Container: Matroska
Runtime: 1h 41mn
Size: 8.09 GiB
Codec: x264
Resolution: 1920×808
Aspect ratio: 2.40:1
Frame rate: 23.976 fps
Bit rate: 9 304 Kbps
Video
Format : AVC
Format/Info : Advanced Video Codec
Codec ID : V_MPEG4/ISO/AVC
Duration : 1h 41mn
Bit rate : 9 304 Kbps
Width : 1 920 pixels
Height : 808 pixels
Display aspect ratio : 2.40:1
Frame rate mode : Constant
Frame rate : 23.976 fps
Stream size : 6.43 GiB (84%)
Language : English
Audio
Format : DTS
Format/Info : Digital Theater Systems
Codec ID : A_DTS
Duration : 1h 41mn
Bit rate mode : Constant
Bit rate : 1 509 Kbps
Channel(s) : 6 channels
Channel positions : Front: L C R, Side: L R, LFE
Sampling rate : 48.0 KHz
Bit depth : 24 bits
Compression mode : Lossy
Stream size : 1.07 GiB (14%)
Language: English | Spanish Lat
Subtitles: Spanish Lat








DESCARGAS
links intercambiables
, recomiendo bajar con JDownloader

Mira con mucha atencion este video si no sabes como descargar de exoshare

links intercambiables
, recomiendo bajar con JDownloader BILLIONUPLOAD (SIMILAR A PUTLOCKER) y los link siempre son intercambiables asi que puedes bajar de varios los serves a la ves
si el link no les abre intenten otra ves y les abrira para ver los links de descarga
links muertos
me mandan un mensaje
privado y los resubo los links al instante ..
solo mandeme la url del post donde lo estan mirando los
muchas gracias
Siempre
subscribanse a los servidores para descargas mas rapidas
NOTAS CUANDO ABRAN LOS LINKS ESPERAR UNOS SEGUNDOS PARA QUE CARGUE LOS ENLASES
COMENTA ASI MIS LINKS NO MUEREN

LINKS AQUI ABAJO EN EL tny.cz
ENLACES:

 DESCARGAS PRESIONA AQUI  

TODOS MIS APORTES PRESIONA AQUI

Ver Online HD

Comenta con tu Facebook :

1 Comment on Wreck-It Ralph [2012][1080p BluRay x264][Espanol][Accion][Multihost]

  1. muchas gracias que pedazo de pelicula! cuando la vi en el cine hay un momento en el cual casi me pongo a llorar!! muy recomendable y mas si eres un gamer de corazon! gracias y ojala puedas subir mas cosas a putlocker

Leave a Reply

Tu dirección de correo no será publicada.


*