Wikileaks; secretos y mentiras [2012]-[SATRip]-[Castellano]

[center][imG]http://s5.postimage.org/u1g0hyr3r/1350467801_000601.png[/img]

[img]http://s5.postimage.org/4w7yk60fr/Sinopsis.png[/img]
[B]El documental «Wikileaks: secretos y mentiras», emitido por Channel 4, ha sido el último quebradero de cabeza del australiano[/B]

El proyecto, además de contar la historia de Wikileaks desde sus inicios, incluye declaraciones del propio Assange, de trabajadores del diario «The Guardian» y otros periódicos, así como de extrabajadores de la organización. Uno de los motivos de la denuncia de Assange contra Channel 4 es la aparición. dentro del documental, de imágenes en las que el australiano baila en un club nocturno de Reykjavic, Islandia (imágenes que, por otra parte, ya estaban colgadas en internet). «Supone una infracción injustificable de mi intimidad», declaró.

[IMG]http://s5.postimage.org/aibf8lsc7/wikileaks_saber.png[/IMG]

El fundador de Wikileaks, alegó además que, cuando contactaron con él para grabar el documental con nuevas declaraciones, la cadena de televisión no le explicó al completo el objetivo del proyecto.

[IMG]http://s5.postimage.org/cmeqpb2rb/RIPEADO.png[/IMG]
[quote][center][b]
Format : AVI

Format/Info : Audio Video Interleave

File size : 973 MiB

Duration : 1h 1mn

Overall bit rate : 2 210 Kbps

Writing application : VirtualDubMod 1.5.4.1 (build 2178/release) VirtualDubMod build 2178/release

Video

ID : 0

Format : MPEG-4 Visual

Format profile : Advanced [email protected]

Format settings, BVOP : 1

Format settings, QPel : No

Format settings, GMC : No warppoints

Format settings, Matrix : Default (MPEG)

Muxing mode : Packed bitstream

Codec ID : XVID

Codec ID/Hint : XviD

Duration : 1h 1mn

Bit rate : 2 011 Kbps

Width : 1 360 pixels

Height : 768 pixels

Display aspect ratio : 16:9

Frame rate : 25.000 fps

Color space : YUV

Chroma subsampling : 4:2:0

Bit depth : 8 bits

Scan type : Progressive

Compression mode : Lossy

Bits/(Pixel*Frame) : 0.077

Stream size : 885 MiB (91%)

Writing library : XviD 64

Audio

ID : 1

Format : MPEG Audio

Format version : Version 1

Format profile : Layer 3

Mode : Joint stereo

Mode extension : MS Stereo

Codec ID : 55

Codec ID/Hint : MP3

Duration : 1h 1mn

Bit rate mode : Constant

Bit rate : 192 Kbps

Channel(s) : 2 channels

Sampling rate : 44.1 KHz

Compression mode : Lossy

Stream size : 84.5 MiB (9%)

Alignment : Split accross interleaves

Interleave, duration : 80 ms (2.00 video frames)

Interleave, preload duration : 500 ms

Writing library : LAME3.98r
Encoding settings : -m j -V 4 -q 2 -lowpass 18.6 -b 192

[IMG]http://s5.postimage.org/c8kcfux83/flag_spain.png[/IMG]
[B]EN ESPAÑOL | DE ESPAÑA[/B] [/b][/center][/quote]

[img]http://s5.postimage.org/w2zgbtxvb/CAPTURAS.png[/img]
[img]http://s5.postimage.org/3uetm08tz/Wl_Kl_L3a_KS_s3cr3t05ym3ntira5_s.jpg[/img]

[img]http://s5.postimage.org/yj19pofxz/DOWNLOAD.png[/img]
[url=http://ul.to/ref/7172673][img]http://uploaded.net/img/uploaded.png[/img][/url]
[B][SIZE=4]WIKILEAKS[COLOR=BLUE] || [/COLOR][COLOR=RED]SECRETOS Y MENTIRAS[/COLOR][/SIZE][/B]
[CODE]http://ul.to/vsj4525z
http://ul.to/gfik7pzq
http://ul.to/w8pm6syc[/CODE]

[IMG]http://s5.postimage.org/dz3dhcerb/CULTURA.png[/IMG]
[B]‘’Yo soy de la época en la que un disco pirata era un disco no oficial de Led Zepelin, o de los Rolling Stones, eran estos vinilos blancos, con una fotocopia…
Para mi el disco pirata fue siempre algo difícil de conseguir, un articulo de colección, una especie de joya única’’ -Andrés Calamaro.[/B][/CENTER]

Ver Online HD

Comenta con tu Facebook :

Be the first to comment

Leave a Reply

Tu dirección de correo no será publicada.


*