We are The Legion (Anonymous) [DVDRip]-[2012]-[Inglés+Subtitulos]


We Are Legion: The Story of the Hacktivists, dirigido por Brian Knappenberger, es un documental sobre el notorio grupo Hacktivista Anonymous.

Considerando a Anonymous y sus “actos de represalia contra los sitios web gestionados por el Departamento de Justicia de Estados Unidos y de la industria del entretenimiento en semanas pasadas, como medio de respuesta al derribo o cierre de Megaupload, We Are Legion: La historia de los Hacktivistas casi podría confundirse con un segmento de noticias de última hora que dure 93 minutos. Pero a diferencia de la mayoría de los segmentos de noticias sobre el grupo, este documental contiene momentos con Anons reales [unos mantienen su anonimato en el documental, pero otros no].

We are Legion podría ser el primer documental en capturar a los miembros de un grupo como verdaderos revolucionarios, y este a su vez podría servir como una cápsula de tiempo para generaciones futuras. Este es un nuevo tipo de huelgas hibridas sentadas y on-line que Anonymous ha ayudado a crear convirtiendo esta forma de desobediencia civil en una nueva forma de revueltas en todo el mundo.
Para los que viven debajo de una roca, en el fondo del mar y no han oido de todos los Ocuppies en marcha, We Are Legion pone la carne en el asadero y este documental narra desde una perspectiva histórica como se llego a la denominacion de el Grupo.
El documental explora las raíces de los primeros activistas hackers ahora llamados Hacktivistas desde el Culto de la Dead Cow y el Electronic Disturbance Theater antes de que Anonymous deje de ser un adjetivo en el idioma Ingles para ser parte de una subcultura que se escuda detras de una mascara para asi ellos protestar sobre sus derechos cibernauticos, y si como algunos sabemos, todo nacio desde el 4chan.

El documental comienza hablando con Anons y ex Anons mientras que el director Knappenberger ofrece un relato cronológico exhaustivo de las hazañas de Anonymous, hasta el lugar actual en el que el Grupo posee, nada mas que “La Vanguardia de la Desobediencia en Línea”. Hackers of the world Unite.

La narracion se profundiza en Mercedes Haefer, quien fue detenida debido a los ataques de denegación de servicios de PayPal en julio pasado, tambien se puede apreciar conversaciones con Anons y expertos sobre la venganza que mantiene Anonymous en contra a la Cienciología, la defensa de WikiLeaks, y el apoyo de las acciones en Túnez y Egipto durante la revuelta Arabe.

Y es en el Slamdance, el festival de cine alternativo que se realiza paralelamente, durante el Festival de Cine de Sundance, le parecio el lugar perfecto para el director de We are Legion. La película podría haber parecido fuera de lugar en un glamoroso Hollywood, aseguro Knappenberger.

Knappenberger está buscando medios para la distribución de su película y que pueda ser visto por un público más amplio. Parece muy poco probable de que los partidarios de Hollywood le ayuden despues de las acciones del grupo en contra de la Asociación Cinematográfica de Estados Unidos.
Pero Knappenberger dijo que no le preocupa.

“Sólo quiero contar la historia”, dijo, y agregó que considerando Anonymous “diversos objetivos en los últimos años,” ¿Quién no se me ofende? “

También podría tomar el consejo de Mercedes Haefer, que en la película dice que lo que Anónymous espera es poder proteger la libertad de expresión, independientemente de las opiniones de una persona o de el resto, como ella dice simplemente: “Su opinión es importante.”

| | | AQUÍ TENEIS LA FUENTE, CON ALGO MÁS DE INFORMACIÓN | | |


Format : AVI
Format/Info : Audio Video Interleave
File size : 892 MiB
Duration : 1h 35mn
Overall bit rate : 1 305 Kbps
Writing application : Lavf52.57.1

Video
ID : 0
Format : MPEG-4 Visual
Codec ID : FMP4
Duration : 1h 35mn
Bit rate : 1 163 Kbps
Width : 688 pixels
Height : 336 pixels
Display aspect ratio : 2.048
Frame rate : 29.970 fps
Color space : YUV
Chroma subsampling : 4:2:0
Compression mode : Lossy
Bits/(Pixel*Frame) : 0.168
Stream size : 795 MiB (89%)

Audio
ID : 1
Format : MPEG Audio
Format version : Version 1
Format profile : Layer 3
Mode : Joint stereo
Mode extension : MS Stereo
Codec ID : 55
Codec ID/Hint : MP3
Duration : 1h 35mn
Bit rate mode : Constant
Bit rate : 128 Kbps
Channel(s) : 2 channels
Sampling rate : 48.0 KHz
Compression mode : Lossy
Stream size : 87.5 MiB (10%)
Alignment : Aligned on interleaves
Interleave, duration : 24 ms (0.72 video frame)
Writing library : LAME3.98.2


EN ESPAÑOL | DE ESPAÑA




WE ARE || THE LEGION

http://ul.to/voj2pjst
http://ul.to/7guwlvuw


‘’Yo soy de la época en la que un disco pirata era un disco no oficial de Led Zepelin, o de los Rolling Stones, eran estos vinilos blancos, con una fotocopia…
Para mi el disco pirata fue siempre algo difícil de conseguir, un articulo de colección, una especie de joya única’’ -Andrés Calamaro.

Ver Online HD

Comenta con tu Facebook :

Be the first to comment

Leave a Reply

Tu dirección de correo no será publicada.


*