Universo; Criaturas Extraterrestres [MP4|720]-[Castellano]-[2012]-[C.Historia]

 


Se elevan a lo más alto de los cielos, navegan a través de los océanos y planean sobre la tierra. Sin embargo, no se trata de criaturas que se encuentren durante un safari en busca de la vida salvaje. Se trata de formas de vida de otro planeta.

Armados con hechos científicos y un poco de imaginación, los expertos se reúnen para llevarnos en un viaje sin precedentes a los límites de lo inimaginable. Científicos, astro-biólogos y astrónomos crean cinco líneas de evolución extraterrestre y nos explican cómo algunas criaturas de la superficie de la Tierra ofrecen su ayuda para poder comprender la vida en el universo.


Format : MPEG-4
Format profile : Base Media / Version 2
Codec ID : mp42
File size : 655 MiB
Duration : 44mn 9s
Overall bit rate mode : Variable
Overall bit rate : 2 074 Kbps
Encoded date : UTC 2012-05-13 12:34:53
Tagged date : UTC 2012-05-13 12:34:53
gsst : 0
gstd : 2649675
gssd : B4A7D0D61MH1355827798435333
gshh : r1—sn-1gi7zn7z.c.youtube.com

Video
ID : 1
Format : AVC
Format/Info : Advanced Video Codec
Format profile : [email protected]
Format settings, CABAC : Yes
Format settings, ReFrames : 1 frame
Codec ID : avc1
Codec ID/Info : Advanced Video Coding
Duration : 44mn 9s
Bit rate : 1 919 Kbps
Maximum bit rate : 8 773 Kbps
Width : 1 280 pixels
Height : 720 pixels
Display aspect ratio : 16:9
Frame rate mode : Constant
Frame rate : 23.976 fps
Color space : YUV
Chroma subsampling : 4:2:0
Bit depth : 8 bits
Scan type : Progressive
Bits/(Pixel*Frame) : 0.087
Stream size : 606 MiB (93%)
Tagged date : UTC 2012-05-13 12:35:35

Audio
ID : 2
Format : AAC
Format/Info : Advanced Audio Codec
Format profile : LC
Codec ID : 40
Duration : 44mn 9s
Bit rate mode : Variable
Bit rate : 152 Kbps
Maximum bit rate : 183 Kbps
Channel(s) : 2 channels
Channel positions : Front: L R
Sampling rate : 44.1 KHz
Compression mode : Lossy
Stream size : 48.0 MiB (7%)
Title : IsoMedia File Produced by Google, 5-11-2011
Encoded date : UTC 2012-05-13 12:35:04
Tagged date : UTC 2012-05-13 12:35:35



EN ESPAÑOL | DE ESPAÑA




UNIVERSO || CRIATURAS EXTRATERRESTRES

Código:
http://ul.to/r7astiws
http://ul.to/q39g40kk


‘’Yo soy de la época en la que un disco pirata era un disco no oficial de Led Zepelin, o de los Rolling Stones, eran estos vinilos blancos, con una fotocopia…
Para mi el disco pirata fue siempre algo difícil de conseguir, un articulo de colección, una especie de joya única’’ -Andrés Calamaro.

 

Ver Online HD

Comenta con tu Facebook :

Be the first to comment

Leave a Reply

Tu dirección de correo no será publicada.


*