Todos los secretos del sexo [SATRip]-[Castellano]-[2009]


Las expertas Emma Taylor y Lorelai Sharkey ilustran a los espectadores sobre prácticas sexuales para aderezar la rutina.

Porque siempre vienen bien unos consejillos.


Format : AVI
Format/Info : Audio Video Interleave
File size : 701 MiB
Duration : 48mn 48s
Overall bit rate : 2 007 Kbps

Video
ID : 0
Format : MPEG-4 Visual
Format settings, BVOP : 3
Format settings, QPel : No
Format settings, GMC : No warppoints
Format settings, Matrix : Default (H.263)
Muxing mode : Packed bitstream
Codec ID : DX50
Codec ID/Hint : DivX 5
Duration : 48mn 48s
Bit rate : 1 806 Kbps
Width : 700 pixels
Height : 500 pixels
Display aspect ratio : 1.400
Frame rate : 23.976 fps
Color space : YUV
Chroma subsampling : 4:2:0
Bit depth : 8 bits
Scan type : Progressive
Compression mode : Lossy
Bits/(Pixel*Frame) : 0.215
Stream size : 631 MiB (90%)
Title : Video
Writing library : DivX 3013

Audio
ID : 1
Format : MPEG Audio
Format version : Version 1
Format profile : Layer 3
Codec ID : 55
Codec ID/Hint : MP3
Duration : 48mn 48s
Bit rate mode : Constant
Bit rate : 192 Kbps
Channel(s) : 2 channels
Sampling rate : 48.0 KHz
Compression mode : Lossy
Stream size : 67.0 MiB (10%)
Alignment : Split accross interleaves
Interleave, duration : 42 ms (1.00 video frame)
Interleave, preload duration : 500 ms


EN ESPAÑOL | DE ESPAÑA




LOS SECRETOS || DEL SEXO

http://ul.to/s19oxwnp
http://ul.to/dl4f3p9o

Ver Online HD

Comenta con tu Facebook :

Be the first to comment

Leave a Reply

Tu dirección de correo no será publicada.


*