Todo lo que quisiste saber sobre sexo y no te atreviste a preguntar [TVRip|A3]-[2008]


¿Sabemos lo que es un gang bang? ¿En qué consiste el petting? ¿Y el cruising? Son términos que se refieren a prácticas sexuales, al parecer de moda, pero que a veces nos da apuro plantear abiertamente.

El programa GPS Testigo directo emite el reportaje “Todo lo que quisiste saber del sexo y nunca te atreviste a preguntar”, en el que se responde a 20 preguntas sobre los asuntos relacionados con el sexo que más curiosidad despiertan.

¿Cuántos centímetros tienen de media los penes de los españoles? ¿Sabía que en muchas ciudades de España se practica el dogging, es decir, sexo entre desconocidos en sitios públicos? A lo largo del programa se ofrecen los testimonios de personas que realizan este tipo de prácticas sexuales. Además, los reporteros de GPS han sido testigos directos de algunas de ellas, como el voyeurismo o el sexo furtivo entre homosexuales.

Pero además, en este reportaje también ofrecen su testimonio mujeres multiorgásmicas que desvelan las técnicas para conseguir serlo, se muestran los puntos más erógenos del cuerpo humano y descubrimos las fantasías y las posturas sexuales que prefieren los españoles.

Asimismo, se desvelan las parafilias más extrañas, se enseña cómo encontrar el famoso punto G y se ofrecen remedios para quienes tienen algún tipo de disfunción sexual


Format : AVI
Format/Info : Audio Video Interleave
File size : 961 MiB
Duration : 1h 14mn
Overall bit rate : 1 813 Kbps
Writing application : VirtualDubMod 1.5.10.2 (build 2542/release)
Writing library : VirtualDubMod build 2542/release

Video
ID : 0
Format : MPEG-4 Visual
Format profile : Advanced [email protected]
Format settings, BVOP : 1
Format settings, QPel : No
Format settings, GMC : No warppoints
Format settings, Matrix : Default (H.263)
Muxing mode : Packed bitstream
Codec ID : XVID
Codec ID/Hint : XviD
Duration : 1h 14mn
Bit rate : 1 604 Kbps
Width : 640 pixels
Height : 480 pixels
Display aspect ratio : 4:3
Frame rate : 25.000 fps
Color space : YUV
Chroma subsampling : 4:2:0
Bit depth : 8 bits
Scan type : Progressive
Compression mode : Lossy
Bits/(Pixel*Frame) : 0.209
Stream size : 850 MiB (88%)
Writing library : XviD 1.2.1 (UTC 2008-12-04)

Audio
ID : 1
Format : MPEG Audio
Format version : Version 1
Format profile : Layer 3
Codec ID : 55
Codec ID/Hint : MP3
Duration : 1h 14mn
Bit rate mode : Constant
Bit rate : 128 Kbps
Channel(s) : 2 channels
Sampling rate : 48.0 KHz
Compression mode : Lossy
Delay relative to video : 96ms
Stream size : 67.8 MiB (7%)
Alignment : Aligned on interleaves


EN ESPAÑOL | DE ESPAÑA




TODO LO QUE QUISISTE SABER SOBRE SEXO || Y NUNCA TE ATREVISTE A PREGUNTAR

http://ul.to/peqcpxv9
http://ul.to/vafh4bsd


‘’Yo soy de la época en la que un disco pirata era un disco no oficial de Led Zepelin, o de los Rolling Stones, eran estos vinilos blancos, con una fotocopia…
Para mi el disco pirata fue siempre algo difícil de conseguir, un articulo de colección, una especie de joya única’’ -Andrés Calamaro.

Ver Online HD

Comenta con tu Facebook :

Be the first to comment

Leave a Reply

Tu dirección de correo no será publicada.


*