The Impossible [2012] [BluRay Remux 1080p] [25gb] [Audio y Subs: English/Castellano]

The Impossible 2012

Blu Ray Remux 1080p | BD25gb | Audio: English/Español | Subs: Eng/Spa

Diciembre del año 2004. María (Naomi Watts), Henry (Ewan McGregor) y sus tres hijos pequeños vuelan desde Japón a Tailandia para pasar sus vacaciones de Navidad descansando en la playa. Una mañana, mientras se encuentran todos en la piscina del complejo a orillas del mar, un tremendo tsunami destroza el hotel al mismo tiempo que gran parte de la costa del sudeste asiático. Las vidas de millones de personas cambiaron para siempre. Esta es la historia de esta familia…

INFORMATION

Titulo Original: The Impossible
Titulo En Español: Lo Imposible
Año: 2012
Pais: España
Imdb: 8.2/10
Director: Juan Antonio Bayona
Reparto: Naomi Watts, Ewan McGregor, Tom Holland, Geraldine Chaplin, Oaklee Pendergast, Samuel Joslin, Dominic Power, Sönke Möhring, Olivia Jackson, Natalie Lorence, Nicola Harrison, Bruce Blain, Johan Sundberg, Teo Quintavalle, Jan Roland Sundberg, Marta Etura

INFORMACION TECNICA

DISC INFO:

File size : 21.9 GiB
Duration : 1h 53mn
Overall bit rate mode : Variable
Overall bit rate : 27.7 Mbps
Encoded date : UTC 2013-02-10 16:38:51

Video
ID : 4
Format : AVC
Format/Info : Advanced Video Codec
Format profile : [email protected]
Format settings, CABAC : Yes
Format settings, ReFrames : 4 frames
Muxing mode : Container [email protected]
Codec ID : V_MPEG4/ISO/AVC
Duration : 1h 53mn
Bit rate mode : Variable
Bit rate : 26.2 Mbps
Maximum bit rate : 35.0 Mbps
Width : 1 920 pixels
Height : 1 080 pixels
Display aspect ratio : 16:9
Frame rate mode : Constant
Frame rate : 24.000 fps
Standard : NTSC
Color space : YUV
Chroma subsampling : 4:2:0
Bit depth : 8 bits
Scan type : Progressive
Bits/(Pixel*Frame) : 0.527
Stream size : 20.8 GiB (95%)
Default : No
Forced : No
Color primaries : BT.709
Transfer characteristics : BT.709
Matrix coefficients : BT.709

Audio #1 [ENGLISH]
ID : 1
Format : AC-3
Format/Info : Audio Coding 3
Mode extension : CM (complete main)
Format settings, Endianness : Big
Codec ID : A_AC3
Duration : 1h 53mn
Bit rate mode : Constant
Bit rate : 448 Kbps
Channel(s) : 2 channels
Channel positions : Front: L R
Sampling rate : 48.0 KHz
Bit depth : 16 bits
Compression mode : Lossy
Stream size : 364 MiB (2%)
Default : Yes
Forced : No

Audio #2 [ESPAÑOL]
ID : 5
Format : AC-3
Format/Info : Audio Coding 3
Mode extension : CM (complete main)
Format settings, Endianness : Big
Codec ID : A_AC3
Duration : 1h 53mn
Bit rate mode : Constant
Bit rate : 448 Kbps
Channel(s) : 2 channels
Channel positions : Front: L R
Sampling rate : 48.0 KHz
Bit depth : 16 bits
Compression mode : Lossy
Stream size : 364 MiB (2%)
Default : No
Forced : No

Text #1
ID : 2
Format : UTF-8
Codec ID : S_TEXT/UTF8
Codec ID/Info : UTF-8 Plain Text
Default : Yes
Forced : No

Text #2
ID : 3
Format : UTF-8
Codec ID : S_TEXT/UTF8
Codec ID/Info : UTF-8 Plain Text
Default : No
Forced : No

22 Partes de 990 Mb y 1 parte de 697 Mb = 22 GB Aprox

Capturas Click aca!!

cap1

cap2

cap3

cap3

cap3

DESCARGAR

Be the first to comment

Leave a Reply

Tu dirección de correo no será publicada.


*