Spartacus: Blood and Sand [2010] Blu-Ray BD25[1080p Espanol Latino-Ingles[putlocker]


==

TITULO ORIGINAL: Spartacus: Blood and Sand (TV Series)
OTROS TITULOS: Spartacus: Sangre y arena (Serie de TV)
AnO: 2010
DURACIÓN: 55 min.
PAIS: USA
DIRECTOR: Steven S. DeKnight (Creator), Rick Jacobson, Michael Hurst, Jesse Warn, Glenn Standring
GUIÓN: Brent Fletcher, Aaron Helbing, Todd Helbing, Miranda Kwok, Steven S. DeKnight, Tracy Bellomo, Andrew Chambliss, Daniel Knauf
MÚSICA: Joseph LoDuca
FOTOGRAFIA: Aaron Morton
REPARTO: Andy Whitfield, Lucy Lawless, John Hannah, Manu Bennett, Peter Mensah, Nick Tarabay, Viva Bianca, Lesley-Ann Brandt, Jai Courtney, Erin Cummings, Craig Walsh-Wrightson, Eka Darville, Antonio Te Maioha, Ande Cunningham, Daniel Feuerriegel, Katrina Law, Brooke Williams, David Austin, Janine Burchett, John Bach, Lliam Powell
PRODUCTORA: Starz Media / Starz Productions; Productor: Sam Raimi
GÉNERO: Serie de TV. Accion | Antigua Roma. Esclavitud. Erotico

Serie de TV (2010). 13 episodios. Traicionado por su pais. Convertido en esclavo. Renacido como guerrero. Spartacus protagoniza la historia mas grafica y visceral del gladiador mas famoso de Roma. Con un reparto estelar, asistimos a una mezcla unica de accion, efectos graficos y brutales batallas. Separado del amor de su vida, Spartacus tendra que luchar por su supervivencia, participando en un espectaculo, donde el principal entretenimiento es la muerte. En un mundo de corrupcion, violencia, sexo y fama acabara interviniendo en politica y vivira atormentado por el deseo de venganza.

DISC INFO:
Disc Title: SPARTACUS_S1_D1
Disc Size: 24,316,490,589 bytes
Protection: AACS
BD-Java: Yes
BDInfo: 0.5.6
PLAYLIST REPORT:
Name: 00001.MPLS
Length: 3:32:04 (h:m:s)
Size: 22,598,805,504 bytes
Total Bitrate: 14.21 Mbps
VIDEO:
Codec Bitrate Description
—– ——- ———–
MPEG-4 AVC Video 12567 kbps 1080p / 23.976 fps / 16:9 / High Profile 4.1
AUDIO:
Codec Language Bitrate Description
—– ——– ——- ———–
Dolby Digital Audio English 640 kbps 5.1 / 48 kHz / 640 kbps
Dolby Digital Audio Spanish 192 kbps 2.0 / 48 kHz / 192 kbps / Dolby Surround
SUBTITLES:
Codec Language Bitrate Description
—– ——– ——- ———–
Presentation Graphics English 37.068 kbps
Presentation Graphics Spanish 36.336 kbps
FILES:
Name Time In Length Size Total Bitrate
—- ——- —— —- ————-
00001.M2TS 0:00:00.000 0:54:56.288 6,199,271,424 15,045
00002.M2TS 0:54:56.288 0:52:48.160 5,495,617,536 13,877
00003.M2TS 1:47:44.448 0:55:10.304 5,853,806,592 14,147
00004.M2TS 2:42:54.752 0:49:09.920 5,050,109,952 13,695
















links intercambiables
sharpfile , filedefend no piden capcha con JDownloader y los link siempre son intercambiables asi q puedes bajar de los 2 serves a la ves
si el paste no les abre intenten otra ves y les abrira para ver los links de descarga
links muertos
me mandan un mensaje
privado y los resubo los links al instante ..
solo mandeme la url del post donde lo estan mirando los
muchas gracias
Siempre
subscribanse a los servidores para descargas mas rapidas
NOTAS CUANDO ABRAN LOS LINKS ESPERAR UNOS SEGUNDOS PARA QUE CARGUE LOS ENLASES
LINKS AQUI ABAJO EN EL PASTEBIN

¡

! http://pastebin.com/CJWdL7VD  ! 

!

Ver Online HD

Comenta con tu Facebook :

Be the first to comment

Leave a Reply

Tu dirección de correo no será publicada.


*