SOS | Todos somos Electro-Hyper-Sensibles [MP4|720p]-[Castellano]-[2012]

 


Es un tema del que nadie parece querer hablar… si no lo mencionamos, no existe.

La gente dice: No hay que ser tan catastrofista… No se puede ir contra la tecnología… No podríamos vivir sin los móviles… Estás exagerando…
Quizás. Pero ante la duda, por lo menos me he dado la opción de explicar lo que está ocurriendo, sin esconder la cabeza bajo tierra. He dado voz a los expertos, los afectados, los técnicos…

Ahora que cada cual juzgue y opine lo que quiera. Alicia Ninou (Alish) entrevista a varios expertos en el sector.


Format : MPEG-4
Format profile : Base Media / Version 2
Codec ID : mp42
File size : 1.47 GiB
Duration : 1h 29mn
Overall bit rate mode : Variable
Overall bit rate : 2 345 Kbps
Encoded date : UTC 2012-11-10 23:44:28
Tagged date : UTC 2012-11-10 23:44:28
gsst : 0
gstd : 5398383
gssd : B4A7D0D02MH1355749765816162
gshh : r5—sn-1gi7zn7e.c.youtube.com

Video
ID : 1
Format : AVC
Format/Info : Advanced Video Codec
Format profile : [email protected]
Format settings, CABAC : Yes
Format settings, ReFrames : 1 frame
Codec ID : avc1
Codec ID/Info : Advanced Video Coding
Duration : 1h 29mn
Bit rate : 2 150 Kbps
Maximum bit rate : 9 569 Kbps
Width : 1 280 pixels
Height : 720 pixels
Display aspect ratio : 16:9
Frame rate mode : Constant
Frame rate : 25.000 fps
Color space : YUV
Chroma subsampling : 4:2:0
Bit depth : 8 bits
Scan type : Progressive
Bits/(Pixel*Frame) : 0.093
Stream size : 1.35 GiB (92%)
Tagged date : UTC 2012-11-10 23:47:09

Audio
ID : 2
Format : AAC
Format/Info : Advanced Audio Codec
Format profile : LC
Codec ID : 40
Duration : 1h 29mn
Bit rate mode : Variable
Bit rate : 192 Kbps
Maximum bit rate : 203 Kbps
Channel(s) : 2 channels
Channel positions : Front: L R
Sampling rate : 44.1 KHz
Compression mode : Lossy
Stream size : 124 MiB (8%)
Title : IsoMedia File Produced by Google, 5-11-2011
Encoded date : UTC 2012-11-10 23:45:48
Tagged date : UTC 2012-11-10 23:47:09



EN ESPAÑOL | DE ESPAÑA




TODOS SOMOS || ELECTRO-HYPER-SENSIBLES

http://ul.to/8nnd7pos
http://ul.to/m4nf2s43
http://ul.to/ylsnud2s
http://ul.to/5uunde9n

 

Ver Online HD

Comenta con tu Facebook :

Be the first to comment

Leave a Reply

Tu dirección de correo no será publicada.


*