Rompiendo el Tabú [MP4|1080p]-[2011]-[Castellano]

 


La guerra contra las drogas ha fallado. Luego de 50 años de prohibición, las drogas ilícitas son ahora la tercera industria más valiosa en el mundo, luego de la comida y el petróleo, toda en el control de criminales. Las drogas son más baratas y están más disponibles que nunca. Millones de personas están en la cárcel por cargos relacionadas con las drogas. La corrupción y la violencia, especialmente en los países productores y de tránsito, pone en peligro la democracia. Decenas de miles de personas mueren cada año en la guerra de las drogas

El filme sigue el trabajo de The Global Commission on Drug Policy (Comisión Global de Políticas de Drogas) para romper con el tabú político sobre la “Guerra conta las Drogas” lidereada por Estados Unidos y expone lo que es llamado como el mayor fracaso de política global en los últimos 40 años.

Breaking the Taboo (Rompiendo el Tabú) es un producción de Sundog Pictures y Spray Filmes que fue dirigida por Cosmo Feilding Mellen y Fernando Grostein Andrade. La versión en inglés es narrada por el actor Morgan Freeman y en español por el actor mexicano Gael García. El documental integra entrevistas con presidentes actuales y ex presidentes de varias partes del mundo, como César Gaviria, Bill Clinton y Jimmy Carter.

Cita:

Format : MPEG-4
Format profile : Base Media / Version 2
Codec ID : mp42
File size : 1.78 GiB
Duration : 58mn 8s
Overall bit rate mode : Variable
Overall bit rate : 4 378 Kbps
Encoded date : UTC 2012-12-04 14:40:44
Tagged date : UTC 2012-12-04 14:40:44
gsst : 0
gstd : 3488471
gssd : B4A7D0D02MH1355751925332014
gshh : r6—sn-1gi7zn7e.c.youtube.com

Video
ID : 1
Format : AVC
Format/Info : Advanced Video Codec
Format profile : [email protected]
Format settings, CABAC : Yes
Format settings, ReFrames : 1 frame
Format settings, GOP : M=1, N=48
Codec ID : avc1
Codec ID/Info : Advanced Video Coding
Duration : 58mn 8s
Bit rate : 4 184 Kbps
Maximum bit rate : 16.7 Mbps
Width : 1 920 pixels
Height : 1 080 pixels
Display aspect ratio : 16:9
Frame rate mode : Constant
Frame rate : 23.976 fps
Color space : YUV
Chroma subsampling : 4:2:0
Bit depth : 8 bits
Scan type : Progressive
Bits/(Pixel*Frame) : 0.084
Stream size : 1.70 GiB (96%)
Tagged date : UTC 2012-12-04 14:42:19

Audio
ID : 2
Format : AAC
Format/Info : Advanced Audio Codec
Format profile : LC
Codec ID : 40
Duration : 58mn 8s
Bit rate mode : Variable
Bit rate : 192 Kbps
Maximum bit rate : 203 Kbps
Channel(s) : 2 channels
Channel positions : Front: L R
Sampling rate : 44.1 KHz
Compression mode : Lossy
Stream size : 79.8 MiB (4%)
Title : IsoMedia File Produced by Google, 5-11-2011
Encoded date : UTC 2012-12-04 14:41:47
Tagged date : UTC 2012-12-04 14:42:19



EN ESPAÑOL | DE ESPAÑA




ROMPIENDO EL || TABÚ

Código:
http://ul.to/myl2jyci
http://ul.to/k1zmtcqr
http://ul.to/4kpzqs1a
http://ul.to/9k27izfm
http://ul.to/vvhkbgov

 

Ver Online HD

Comenta con tu Facebook :

Be the first to comment

Leave a Reply

Tu dirección de correo no será publicada.


*