Roberto Saviano; en la sombra de la muerte [2010]-[SATRip]-[Castellano]


Corría el año 2006, cuando Roberto Saviano, un joven italiano de 26 años comprometido con la lucha contra la Camorra, publicaba su primera novela. El libro rápidamente se coló en la lista de los más vendidos, tanto en Italia como en el extranjero, e inspiró una película que ganó la Palma de Oro del Festival de Cannes.

Pero, ¿qué era lo que desvelaba Gomorra, el libro en cuestión, que llevó a la mafia napolitana a poner precio a la cabeza de Roberto Saviano?

Con esta pregunta en mente y contando con los testimonios de todos aquellos que han conocido a Saviano o han trabajado estrechamente con él, la directora Elisa Mantin ha tejido este documental que sigue el día a día de Saviano y las claves de su cruzada, una lucha que ha levantado sentimientos radicalmente opuestos, para las generaciones más jóvenes es un héroe y para la Camorra un traidor al que hay que cerrar la boca. A pesar de los cambios producidos en su vida cotidiana, como la necesidad de llevar escolta y someterse a continuos cambios de residencia, lo que emerge con más fuerza es la inquebrantable determinación del autor para continuar su particular lucha contra la mafia, con la pluma como única arma.

Este documental nos acerca a la figura de Roberto Saviano, un héroe sobre el que pende una sentencia de muerte…


Format : AVI
Format/Info : Audio Video Interleave
File size : 843 MiB
Duration : 53mn 15s
Overall bit rate : 2 213 Kbps
Writing application : SpanishDub 1.5
Writing library : VirtualDub build 14328/release

Video
ID : 0
Format : MPEG-4 Visual
Format profile : Advanced [email protected]
Format settings, BVOP : No
Format settings, QPel : No
Format settings, GMC : No warppoints
Format settings, Matrix : Custom
Codec ID : XVID
Codec ID/Hint : XviD
Duration : 53mn 15s
Bit rate : 2 075 Kbps
Width : 720 pixels
Height : 416 pixels
Display aspect ratio : 16:9
Frame rate : 25.000 fps
Color space : YUV
Chroma subsampling : 4:2:0
Bit depth : 8 bits
Scan type : Progressive
Compression mode : Lossy
Bits/(Pixel*Frame) : 0.277
Stream size : 790 MiB (94%)
Writing library : XviD 1.2.1 (UTC 2008-12-04)

Audio
ID : 1
Format : MPEG Audio
Format version : Version 1
Format profile : Layer 3
Mode : Joint stereo
Codec ID : 55
Codec ID/Hint : MP3
Duration : 53mn 15s
Bit rate mode : Constant
Bit rate : 128 Kbps
Channel(s) : 2 channels
Sampling rate : 48.0 KHz
Compression mode : Lossy
Stream size : 48.8 MiB (6%)
Alignment : Aligned on interleaves
Interleave, duration : 40 ms (1.00 video frame)
Interleave, preload duration : 480 ms


EN ESPAÑOL | DE ESPAÑA




ROBERTO SAVIANO || EN LA SOMBRA DE LA MUERTE

http://ul.to/wkmar7v5
http://ul.to/kdt4ymmw


‘’Yo soy de la época en la que un disco pirata era un disco no oficial de Led Zepelin, o de los Rolling Stones, eran estos vinilos blancos, con una fotocopia…
Para mi el disco pirata fue siempre algo difícil de conseguir, un articulo de colección, una especie de joya única’’ -Andrés Calamaro.

Ver Online HD

Comenta con tu Facebook :

Be the first to comment

Leave a Reply

Tu dirección de correo no será publicada.


*