Que significa el ¿UnderGround? [MP4|720p]-[Castellano]-[2012]


Underground es cuando estas en ese punto de mira, porque eres capaz de decir lo que una editorial no se atreve a decir. Y si se atreve a decirlo no se atreve a publicarlo en Francia […] Puedes ser realmente todo lo visceral que quieras ser. Puedes ser todo lo romantico… Puedes transmitir todo el amor que tu quieras dentro de un fanzine. Puedes transmitir… todo lo que tu quieras con un fanzine. Más que nada porque no hay nadie que te diga: no no, esto no, eso no se puede, no, buf, esto oh… ¡Esto no vende! –Sr. Peluki

‘¿Qué significa underground?’ es un documental realizado por Guillermo Carandini y la productora Zeventrack S.L. que puede verse en You Tube desde el pasado día 26 de octubre. A pesar de ser una producción independiente, con las limitaciones que ello conlleva, tiene una excelente realización, pues se ve que saben muy bien por donde se mueven.
Para ponernos en situación nos muestran las experiencias y opiniones de los responsables de fanzines y publicaciones como ‘Rantifuso’, ‘TMEO’, ‘Tonterías del rock’, ‘El Jueves’ o ‘Cretino’. A través de sus ojos podemos ver las fases de realización de un fanzine y, lo más importante de todo, conoceremos las motivaciones que llevan a estos valientes a lanzarse a la aventura de la autoedición.
Este largometraje documental se inició hace cuatro años, y en este tiempo ha ido recogiendo testimonios en diferentes salones, exposiciones, encuentros y talleres. Diferentes escenarios en los que formular una y otra vez la misma pregunta. Y tras escuchar a sus protagonistas lo que queda clarísimo es que merece la pena el esfuerzo de realizar de un fanzine.

Cita:

Format : MPEG-4
Format profile : Base Media / Version 2
Codec ID : mp42
File size : 1.74 GiB
Duration : 1h 31mn
Overall bit rate mode : Variable
Overall bit rate : 2 731 Kbps
Encoded date : UTC 2012-10-24 19:23:27
Tagged date : UTC 2012-10-24 19:23:27
gsst : 0
gstd : 5486340
gssd : B400F700AMM1355825804613770
gshh : r7—sn-xjpm-q0nl.c.youtube.com

Video
ID : 1
Format : AVC
Format/Info : Advanced Video Codec
Format profile : [email protected]
Format settings, CABAC : Yes
Format settings, ReFrames : 1 frame
Codec ID : avc1
Codec ID/Info : Advanced Video Coding
Duration : 1h 31mn
Bit rate : 2 537 Kbps
Maximum bit rate : 6 497 Kbps
Width : 1 280 pixels
Height : 720 pixels
Display aspect ratio : 16:9
Frame rate mode : Constant
Frame rate : 25.000 fps
Color space : YUV
Chroma subsampling : 4:2:0
Bit depth : 8 bits
Scan type : Progressive
Bits/(Pixel*Frame) : 0.110
Stream size : 1.62 GiB (93%)
Tagged date : UTC 2012-10-24 19:27:36

Audio
ID : 2
Format : AAC
Format/Info : Advanced Audio Codec
Format profile : LC
Codec ID : 40
Duration : 1h 31mn
Bit rate mode : Variable
Bit rate : 192 Kbps
Maximum bit rate : 201 Kbps
Channel(s) : 2 channels
Channel positions : Front: L R
Sampling rate : 44.1 KHz
Compression mode : Lossy
Stream size : 126 MiB (7%)
Title : IsoMedia File Produced by Google, 5-11-2011
Encoded date : UTC 2012-10-24 19:25:32
Tagged date : UTC 2012-10-24 19:27:36



EN ESPAÑOL | DE ESPAÑA




QUE SIGNIFICA || ¿UNDERGROUND?

Código:
http://ul.to/173ij808
http://ul.to/p6j4yhrb
http://ul.to/hebrqt43
http://ul.to/789ph03s


‘’Yo soy de la época en la que un disco pirata era un disco no oficial de Led Zepelin, o de los Rolling Stones, eran estos vinilos blancos, con una fotocopia…
Para mi el disco pirata fue siempre algo difícil de conseguir, un articulo de colección, una especie de joya única’’ -Andrés Calamaro.

Ver Online HD

Comenta con tu Facebook :

Be the first to comment

Leave a Reply

Tu dirección de correo no será publicada.


*