Pep Guardiola, el coleccionista de títulos [MP4][360p][2012][Castellano]


Pep Guardiola: El coleccionista de títulos. Diseñador del fútbol moderno, trabajador incansable, curioso e incorformista son algunos de los adjetivos que definen a Josep Guardiola, ex entrenador del Barclona.


Format : MPEG-4
Format profile : Base Media / Version 2
Codec ID : mp42
File size : 221 MiB
Duration : 46mn 13s
Overall bit rate mode : Variable
Overall bit rate : 667 Kbps

Video
ID : 1
Format : AVC
Format/Info : Advanced Video Codec
Format profile : [email protected]
Format settings, CABAC : No
Format settings, ReFrames : 1 frame
Codec ID : avc1
Codec ID/Info : Advanced Video Coding
Duration : 46mn 13s
Bit rate : 569 Kbps
Maximum bit rate : 2 563 Kbps
Width : 640 pixels
Height : 360 pixels
Display aspect ratio : 16:9
Frame rate mode : Constant
Frame rate : 25.000 fps
Color space : YUV
Chroma subsampling : 4:2:0
Bit depth : 8 bits
Scan type : Progressive
Bits/(Pixel*Frame) : 0.099
Stream size : 188 MiB (85%)
Tagged date : UTC 2012-09-21 17:25:56

Audio
ID : 2
Format : AAC
Format/Info : Advanced Audio Codec
Format profile : LC
Codec ID : 40
Duration : 46mn 13s
Bit rate mode : Variable
Bit rate : 96.0 Kbps
Maximum bit rate : 103 Kbps
Channel(s) : 2 channels
Channel positions : Front: L R
Sampling rate : 44.1 KHz
Compression mode : Lossy
Stream size : 31.7 MiB (14%)
Encoded date : UTC 2012-09-21 17:25:55
Tagged date : UTC 2012-09-21 17:25:56



EN ESPAÑOL | DE ESPAÑA




PEP GUARDIOLA || COLECCIONISTA DE TITULOS

http://ul.to/05hlsogz


‘’Yo soy de la época en la que un disco pirata era un disco no oficial de Led Zepelin, o de los Rolling Stones, eran estos vinilos blancos, con una fotocopia…
Para mi el disco pirata fue siempre algo difícil de conseguir, un articulo de colección, una especie de joya única’’ -Andrés Calamaro.

Ver Online HD

Comenta con tu Facebook :

Be the first to comment

Leave a Reply

Tu dirección de correo no será publicada.


*