Paranormal Activity 3 720p BRRip Xvid Dual Latino Ac3 5.1

SINOPSIS

Tras “Paranormal activity” y “Paranormal activity 2″, llega a los cines esta tercera entrega de la ya famosa saga de terror casero especialmente destinada a los amantes y curiosos de la parapsicología. Se trata de una precuela que nos cuenta los orígenes del horror que envolvió a las hermanas Katie y Kristi Rey. La película nos traslada a su infancia, hacia finales de los años ochenta, cuando ambas eran aún unas niñas y los fantasmas entraron en sus vidas…

INFORMATION

Titulo Original: Paranormal Activity
Titulo En Español: Actividad Paranormal 3
Año: 2011
Pais: Usa
Idmb: 6.3/10
Reparto: Christopher Nicholas Smith, Lauren Bittner, Chloe Csengery,Jessica Tyler Brown, Maria Olsen, Dustin Ingram.

NFO

General

Complete name : files/Actividad.Paranormal3.BRRip720pLatino-By.eacc95.avi
Format : AVI
Format/Info : Audio Video Interleave
Format profile : OpenDML
File size : 2.48 GiB
Duration : 1h 33mn
Overall bit rate : 3 779 Kbps
Movie name : Actividad Paranormal 3 BRRip 720p Latino
Director : Chamako
Genre : Terror
Recorded date : 15-01-2012
Writing application : VirtualDubMod 1.5.10.2 (build 2540/release)
Writing library : VirtualDubMod build 2540/release

Audio #1

ID : 1
Format : AC-3
Format/Info : Audio Coding 3
Mode extension : CM (complete main)
Codec ID : 2000
Duration : 1h 33mn
Bit rate mode : Constant
Bit rate : 448 Kbps
Channel(s) : 6 channels
Channel positions : Front: L C R, Side: L R, LFE
Sampling rate : 48.0 KHz
Bit depth : 16 bits
Stream size : 301 MiB (12%)
Alignment : Split accross interleaves
Interleave, duration : 42 ms (1.00 video frame)
Interleave, preload duration : 500 ms

Audio #2

ID : 2
Format : AC-3
Format/Info : Audio Coding 3
Mode extension : CM (complete main)
Codec ID : 2000
Duration : 1h 33mn
Bit rate mode : Constant
Bit rate : 384 Kbps
Channel(s) : 6 channels
Channel positions : Front: L C R, Side: L R, LFE
Sampling rate : 48.0 KHz
Bit depth : 16 bits
Stream size : 258 MiB (10%)
Alignment : Split accross interleaves
Interleave, duration : 42 ms (1.00 video frame)
Interleave, preload duration : 500 ms

CLICK ACA PARA VER TRAILER

Capturas Click aca!!

DESCARGAR

DESCARGAR FILESONIC

DESCARGAR FILESERVE

Ver Links

Ver Links

Ver Links

CONTRASEÑA: eacc95

COMENTA POR FAVOR!!

Ver Online HD

Comenta con tu Facebook :

Be the first to comment

Leave a Reply

Tu dirección de correo no será publicada.


*