No (2012) (DVDSCreener) (Español) (MultiHost)

TÍTULO ORIGINAL
No
AÑO
2012
DURACIÓN
116 min.
PAÍS
Chile
DIRECTOR
Pablo Larraín
GUIÓN
Pedro Peirano
MÚSICA
Carlos Cabezas
FOTOGRAFÍA
Sergio Armstrong
REPARTO
Gael García Bernal, Alfredo Castro, Luis Gnecco, Antonia Zegers, Néstor Cantillana, Alejandro Goic, Diego Muñoz, Jaime Vadell, Marcial Tagle, Manuela Oyarzún, Pascal Montero, José Manuel Salcedo, Enrique Garcia
PRODUCTORA
Coproducción Chile-México; Fabula production / Participant Media / Funny Balloons
PREMIOS
2012: Oscar: nominada a la mejor película de habla no inglesa
2012: Festival de Cannes: Premio Quincena de Realizadores a la mejor película
2012: Festival de La Habana: Mejor película
GÉNERO
Drama/Comedia

AVI
DVD-Screener
780 MB
Español

MEDIAINFO

[spoiler]General
Complete name : /disco4/elcamale/public_html/rapidleech/files/Descargas-Directas/N.0.DVDSCR.avi
Format : AVI
Format/Info : Audio Video Interleave
File size : 780 MiB
Duration : 1h 57mn
Overall bit rate : 927 Kbps

Video
ID : 0
Format : MPEG-4 Visual
Format profile : Advanced [email protected]
Format settings, BVOP : 2
Format settings, QPel : No
Format settings, GMC : No warppoints
Format settings, Matrix : Default (H.263)
Muxing mode : Packed bitstream
Codec ID : XVID
Codec ID/Hint : XviD
Duration : 1h 57mn
Bit rate : 756 Kbps
Width : 720 pixels
Height : 480 pixels
Display aspect ratio : 3:2
Frame rate : 29.970 fps
Standard : NTSC
Color space : YUV
Chroma subsampling : 4:2:0
Bit depth : 8 bits
Scan type : Progressive
Compression mode : Lossy
Bits/(Pixel*Frame) : 0.073
Stream size : 636 MiB (81%)
Writing library : XviD 1.1.2 (UTC 2006-11-01)

Audio
ID : 1
Format : MPEG Audio
Format version : Version 1
Format profile : Layer 3
Codec ID : 55
Codec ID/Hint : MP3
Duration : 1h 57mn
Bit rate mode : Constant
Bit rate : 160 Kbps
Channel(s) : 2 channels
Sampling rate : 48.0 KHz
Compression mode : Lossy
Delay relative to video : 24ms
Stream size : 135 MiB (17%)
Alignment : Split accross interleaves
Interleave, duration : 33 ms (1.00 video frame)
Interleave, preload duration : 24 ms
Title : Audio Stream
Writing library : LAME3.92[/spoiler]

René Saavedra (Gael García Bernal) es un ejecutivo de publicidad que regresa a Chile tras su exilio en México y diseña una brillante y optimista campaña que propugna el “No” al plebiscito chileno de 1988. Su objetivo es poner fin a la dictadura militar y derrocar a Augusto Pinochet.

Larraín completa satisfactoriamente su trilogía (…) Tensa en todo momento, incluso para la audiencia que conozca la historia, y además profusa en el humor negro andino de los trabajos previos de Larraín” (Leslie Felperin: Variety)


<img border="0" alt="" src="http://ist2-1.filesor.com/pimpandhost.com/6/8/3/6/68364/1/k/z/D/1kzD5/NOOO.jpg
<img border="0" alt="" src="http://ist2-1.filesor.com/pimpandhost.com/6/8/3/6/68364/1/k/z/D/1kzD1/NOO.jpg

ENLACES INTERCAMBIABLES

Podras descargar desde 17 servidores de archivos diferentes !!!! – Multihost

Los enlaces están protegidos para que no sean borrados y duren mas on-line.

Copia el siguiiente enlace contenedor en la barra de direcciones de tu navegador:

1 LINK

http://www.tinypasted.com/QF9GQU4N
ó
http://protect-my-links.com/3asbyp38.html


3 LINKS

http://protect-my-links.com/4ac0wist.html
ó
http://pastebin.com/8zDX6mGz

PASSWORD PARA DESCOMPRIMIR

123abc

[youtube]L43ZTdVozLQ[/youtube]

Ver Online HD

Comenta con tu Facebook :

Be the first to comment

Leave a Reply

Tu dirección de correo no será publicada.


*