Messi, história viva en Zurich [MP4][360p][Castellano][2013]


Programa especial en torno al FIFA Balón de Oro 2012 conseguido por Leo Messi.
Bajo el nombre ‘Messi, historia viva en Zúrich’

Barça TV presenta la película de la jornada que vivió el jugador el lunes. Desde la salida en vuelo privado desde Barcelona hasta la vuelta, ya con el cuarto Balón de Oro en sus manos.

Un reportaje para revivir un día histórico para Messi y para el FC Barcelona: en ‘Messi, historia viva en Zúrich’ se recogen las mejores imágenes y las declaraciones de los protagonistas …


Format : MPEG-4
Format profile : Base Media / Version 2
Codec ID : mp42
File size : 93.8 MiB
Duration : 23mn 26s
Overall bit rate mode : Variable
Overall bit rate : 560 Kbps

Video
ID : 1
Format : AVC
Format/Info : Advanced Video Codec
Format profile : [email protected]
Format settings, CABAC : No
Format settings, ReFrames : 1 frame
Codec ID : avc1
Codec ID/Info : Advanced Video Coding
Duration : 23mn 26s
Bit rate : 461 Kbps
Maximum bit rate : 1 424 Kbps
Width : 640 pixels
Height : 360 pixels
Display aspect ratio : 16:9
Frame rate mode : Constant
Frame rate : 25.000 fps
Color space : YUV
Chroma subsampling : 4:2:0
Bit depth : 8 bits
Scan type : Progressive
Bits/(Pixel*Frame) : 0.080
Stream size : 77.3 MiB (82%)
Tagged date : UTC 2013-01-08 18:14:29

Audio
ID : 2
Format : AAC
Format/Info : Advanced Audio Codec
Format profile : LC
Codec ID : 40
Duration : 23mn 26s
Bit rate mode : Variable
Bit rate : 96.0 Kbps
Maximum bit rate : 104 Kbps
Channel(s) : 2 channels
Channel positions : Front: L R
Sampling rate : 44.1 KHz
Compression mode : Lossy
Stream size : 16.1 MiB (17%)
Encoded date : UTC 2013-01-08 18:14:29
Tagged date : UTC 2013-01-08 18:14:29



EN ESPAÑOL | DE ESPAÑA




MESSI || HISTORIA VIVA EN ZURICH

http://ul.to/xz7f734v


‘’Yo soy de la época en la que un disco pirata era un disco no oficial de Led Zepelin, o de los Rolling Stones, eran estos vinilos blancos, con una fotocopia…
Para mi el disco pirata fue siempre algo difícil de conseguir, un articulo de colección, una especie de joya única’’ -Andrés Calamaro.

Ver Online HD

Comenta con tu Facebook :

Be the first to comment

Leave a Reply

Tu dirección de correo no será publicada.


*