Megafactorias – Fifa 12 (Making Of) [HDTV|720p]-[Castellano]-[2012]

[center][imG]http://s5.postimage.org/yhh9pkdyv/FF12.jpg[/img]

[img]http://s5.postimage.org/4w7yk60fr/Sinopsis.png[/img]
[B] National Geographic Channel analiza la creación de la nueva edición del EA Sports FIFA, el FIFA 12, en el documental que forma parte de la tercera temporada de la serie “Megafactorías”[/B]

Millones de personas esperan todos los años la llega del nuevo EA Sports FIFA, el que muchos consideran el mejor videojuego de fútbol del mercado. Un lujo de la técnica en la que están representadas las ligas de 32 países, más de 500 clubes y una alineación envidiable que incluye a más de 15.000 jugadores. Desde que Electronic Arts (EA) consiguió la licencia por parte de la FIFA para crear este videojuego en 1993, sus creaciones han mejorado año tras año y han convertido al FIFA en uno de los títulos más solicitados del mercado de los videojuegos.

[IMG]http://s5.postimage.org/8w51ppqrb/at_XBV.jpg[/IMG]
Las cámaras de National Geographic Channel han entrado en la fábrica de EA en Burnaby (Canadá) para contar en primera persona cómo se ha creado el nuevo FIFA 12.

El resultado a sido este increíble documental…

[IMG]http://s5.postimage.org/cmeqpb2rb/RIPEADO.png[/IMG]
[quote][center][b]
Format : AVI
Format/Info : Audio Video Interleave
File size : 993 MiB
Duration : 44mn 59s
Overall bit rate : 3 086 Kbps
Writing application : VirtualDubMod 1.5.10.3 | www.virtualdub-fr.org || (build 2550/release)
Writing library : VirtualDubMod build 2550/release

Video
ID : 0
Format : MPEG-4 Visual
Format profile : Advanced [email protected]
Format settings, BVOP : 2
Format settings, QPel : No
Format settings, GMC : No warppoints
Format settings, Matrix : Default (H.263)
Muxing mode : Packed bitstream
Codec ID : XVID
Codec ID/Hint : XviD
Duration : 44mn 59s
Bit rate : 2 884 Kbps
Width : 1 280 pixels
Height : 720 pixels
Display aspect ratio : 16:9
Frame rate : 25.000 fps
Color space : YUV
Chroma subsampling : 4:2:0
Bit depth : 8 bits
Scan type : Progressive
Compression mode : Lossy
Bits/(Pixel*Frame) : 0.125
Stream size : 928 MiB (93%)
Writing library : XviD 64

Audio
ID : 1
Format : MPEG Audio
Format version : Version 1
Format profile : Layer 3
Mode : Joint stereo
Mode extension : MS Stereo
Codec ID : 55
Codec ID/Hint : MP3
Duration : 44mn 58s
Bit rate mode : Constant
Bit rate : 192 Kbps
Channel(s) : 2 channels
Sampling rate : 48.0 KHz
Compression mode : Lossy
Stream size : 61.8 MiB (6%)
Alignment : Aligned on interleaves
Interleave, duration : 40 ms (1.00 video frame)
Interleave, preload duration : 504 ms

[IMG]http://s5.postimage.org/c8kcfux83/flag_spain.png[/IMG]
[B]EN ESPAÑOL | DE ESPAÑA[/B] [/b][/center][/quote]

[IMG]http://s5.postimage.org/wkfy78xx3/004.jpg[/IMG]

[img]http://s5.postimage.org/w2zgbtxvb/CAPTURAS.png[/img]
[img]http://s5.postimage.org/gidf0uy7r/M3_G4_F4_CT0_Rl_A5_Fl_F_a12_s.jpg[/img]

[img]http://s5.postimage.org/yj19pofxz/DOWNLOAD.png[/img]
[url=http://ul.to/ref/7172673][img]http://uploaded.net/img/uploaded.png[/img][/url]
[B][SIZE=4]MEGAFACTORIAS[COLOR=BLUE] || [/COLOR][COLOR=RED]FIFA 12[/COLOR][/SIZE][/B]
[CODE]http://ul.to/l8jxpdag
http://ul.to/yplle0b4
http://ul.to/q7xym7su[/CODE]

[IMG]http://s5.postimage.org/dz3dhcerb/CULTURA.png[/IMG]
[B]‘’Yo soy de la época en la que un disco pirata era un disco no oficial de Led Zepelin, o de los Rolling Stones, eran estos vinilos blancos, con una fotocopia…
Para mi el disco pirata fue siempre algo difícil de conseguir, un articulo de colección, una especie de joya única’’ -Andrés Calamaro.[/B][/CENTER]

Ver Online HD

Comenta con tu Facebook :

Be the first to comment

Leave a Reply

Tu dirección de correo no será publicada.


*