Marley (Kevin McDonald) – [SATRip]-[C+]-[2012]-[Castellano]


El documental definitivo sobre uno de los iconos del siglo XX, el legendario músico jamaicano Robert Nesta Marley Booker: Bob Marley.

El atractivo universal de Bob Marley, su impacto en la historia de la música y su papel como profeta social y político siguen sin tener parangón. Su música y su mensaje trascienden la cultura, el lenguaje y el credo y resuenan en el mundo con tanta fuerza hoy como cuando estaba vivo.

Solo un puñado de músicos han conseguido tal impacto, y Bob Marley, a pesar de que su vida fue demasiado corta, está entre ellos.
Su historia ha sido por fin llevada a la pantalla en esta obra del director escocés Kevin Macdonald, ganador del Oscar al mejor documental por “One Day in September” y realizador de otros interesantes documentales como “Touching the Void (Tocando el vacío)” o “Being Mick Jagger” -la única biografía fílmica autorizada de Jagger- y de películas como “El último rey de Escocia” o “La legión del águila”.
El rodaje se llevó a cabo en lugares tan distantes como Ghana, Japón y Reino Unido, además de en la amada Jamaica de Bob y en Estados Unidos. El documental nos cuenta la vida de Marley -nacido en febrero de 1945 en la localidad de Nine Miles- desde su dura infancia, marcada por la muerte de su padre y las vejaciones que tuvo que sufrir a causa de su raza -era mulato-, hasta su muerte en mayo de 1981 en Miami, provocada por un agresivo cáncer que se lo llevó en tan sólo ocho meses. El documental también hace especial mención a las dificultades que el artista experimentó durante el comienzo de su carrera.


Format : AVI
Format/Info : Audio Video Interleave
File size : 1.61 GiB
Duration : 2h 18mn
Overall bit rate : 1 665 Kbps
Writing application : VirtualDubMod 1.5.4.1 (build 2178/release)
Writing library : VirtualDubMod build 2178/release

Video
ID : 0
Format : MPEG-4 Visual
Format profile : Advanced [email protected]
Format settings, BVOP : 1
Format settings, QPel : No
Format settings, GMC : No warppoints
Format settings, Matrix : Custom
Codec ID : XVID
Codec ID/Hint : XviD
Duration : 2h 18mn
Bit rate : 1 530 Kbps
Width : 720 pixels
Height : 400 pixels
Display aspect ratio : 16:9
Frame rate : 25.000 fps
Color space : YUV
Chroma subsampling : 4:2:0
Bit depth : 8 bits
Scan type : Progressive
Compression mode : Lossy
Bits/(Pixel*Frame) : 0.213
Stream size : 1.48 GiB (92%)
Writing library : XviD 1.2.1 (UTC 2008-12-04)

Audio
ID : 1
Format : MPEG Audio
Format version : Version 1
Format profile : Layer 3
Mode : Joint stereo
Mode extension : MS Stereo
Codec ID : 55
Codec ID/Hint : MP3
Duration : 2h 18mn
Bit rate mode : Constant
Bit rate : 128 Kbps
Channel(s) : 2 channels
Sampling rate : 48.0 KHz
Compression mode : Lossy
Stream size : 127 MiB (8%)
Alignment : Aligned on interleaves
Interleave, duration : 80 ms (2.00 video frames)
Interleave, preload duration : 504 ms


EN ESPAÑOL | DE ESPAÑA




BOB || MARLEY

http://ul.to/lv71a73b
http://ul.to/4qth656o
http://ul.to/wxcxgfjb
http://ul.to/rem48789




‘’Yo soy de la época en la que un disco pirata era un disco no oficial de Led Zepelin, o de los Rolling Stones, eran estos vinilos blancos, con una fotocopia…
Para mi el disco pirata fue siempre algo difícil de conseguir, un articulo de colección, una especie de joya única’’ -Andrés Calamaro.

Ver Online HD

Comenta con tu Facebook :

Be the first to comment

Leave a Reply

Tu dirección de correo no será publicada.


*