Maradona, by Kusturica [MP4]-[240p]-[V.O.S/Argentina]-[2008]


Maradona by Kusturica es una película documental del cineasta serbio Emir Kusturica, basada en la vida de Diego Armando Maradona, considerado uno de los mejores futbolistas de todos los tiempos.

Kusturica se dispone a explicar lo que Maradona representa para el mundo y el hombre que hay detrás de esa representación. Para ello recopila los sucesos sobresalientes de su vida (su infancia en Villa Fiorito, su carrera como jugador, el Gol del Siglo, sus problemas con las drogas) y acompaña al astro en sus actividades entre los años 2005 y 2007, su experiencia como presentador de televisión en La Noche del 10 y su militancia política junto a Fidel Castro, Evo Morales y Hugo Chávez.


Format : MPEG-4
Format profile : Base Media / Version 2
Codec ID : mp42
File size : 356 MiB
Duration : 1h 32mn
Overall bit rate mode : Variable
Overall bit rate : 537 Kbps

Video
ID : 1
Format : AVC
Format/Info : Advanced Video Codec
Format profile : [email protected]
Format settings, CABAC : No
Format settings, ReFrames : 1 frame
Format settings, GOP : M=1, N=60
Codec ID : avc1
Codec ID/Info : Advanced Video Coding
Duration : 1h 32mn
Bit rate : 439 Kbps
Maximum bit rate : 1 797 Kbps
Width : 512 pixels
Height : 288 pixels
Display aspect ratio : 16:9
Frame rate mode : Constant
Frame rate : 25.000 fps
Color space : YUV
Chroma subsampling : 4:2:0
Bit depth : 8 bits
Scan type : Progressive
Bits/(Pixel*Frame) : 0.119
Stream size : 291 MiB (82%)
Tagged date : UTC 2012-10-05 02:59:25

Audio
ID : 2
Format : AAC
Format/Info : Advanced Audio Codec
Format profile : LC
Codec ID : 40
Duration : 1h 32mn
Bit rate mode : Variable
Bit rate : 96.0 Kbps
Maximum bit rate : 104 Kbps
Channel(s) : 2 channels
Channel positions : Front: L R
Sampling rate : 44.1 KHz
Compression mode : Lossy
Stream size : 63.6 MiB (18%)
Encoded date : UTC 2012-10-05 02:59:25
Tagged date : UTC 2012-10-05 02:59:25


VERSIÓN ORIGINAL




MARADONA || PELÍCULA-DOCUMENTAL

http://ul.to/iigd4nlx


‘’Yo soy de la época en la que un disco pirata era un disco no oficial de Led Zepelin, o de los Rolling Stones, eran estos vinilos blancos, con una fotocopia…
Para mi el disco pirata fue siempre algo difícil de conseguir, un articulo de colección, una especie de joya única’’ -Andrés Calamaro.

Ver Online HD

Comenta con tu Facebook :

Be the first to comment

Leave a Reply

Tu dirección de correo no será publicada.


*