Mansome, ¡que bonito es ser hombre! [C+][SATRip][Castellano][2012]


En la era del ‘metrosexual’, de los ‘spa’ para hombres y de las líneas de cosmética masculina, Mansome ¡Qué bonito es ser un hombre! es una mirada ingeniosa, provocativa y sumamente divertida sobre lo que quiere decir ser un hombre en un mundo en el que la definición de masculinidad cada día es más difusa.

Con su humor y perspicacia habitual, el director Morgan Spurlock (“La historia más grande jamás vendida”, “Super Size Me”, que le valió una nominación al Oscar) examina los hábitos de aseo del hombre actual para llegar a saber cuál es la imagen que tiene de sí mismo. Para ello, la cámara de Spurlock sigue a los actores Will Arnett y Jason Bateman hasta el ‘spa’ en el que se someten a varios tratamientos de belleza, mostrando los más oscuros secretos de aseo masculinos.
Además, el filme -cuyo título original, “Mansome”, es una mezcla se las palabras inglesas ‘man’ (hombre) y ‘hansome’ (guapo)- recoge las opiniones de una amplia gama de hombres, desde participantes en concursos de barbas, propietarios de peluquerías o luchadores profesionales, hasta expertos sociológicos o miembros de la industria cinematográfica (como Paul Rudd, Zach Galifianakis, Adam Carolla y Judd Apatow), que hablan de las cada vez más habituales visitas de hombres a las clínicas de cirugía estética o de su obsesión por el pelo facial.


Format : AVI
Format/Info : Audio Video Interleave
File size : 996 MiB
Duration : 1h 18mn
Overall bit rate : 1 775 Kbps
Writing application : VirtualDubMod 1.5.4.1 (build 2178/release)
Writing library : VirtualDubMod build 2178/release

Video
ID : 0
Format : MPEG-4 Visual
Format profile : Advanced [email protected]
Format settings, BVOP : 1
Format settings, QPel : No
Format settings, GMC : No warppoints
Format settings, Matrix : Custom
Codec ID : XVID
Codec ID/Hint : XviD
Duration : 1h 18mn
Bit rate : 1 640 Kbps
Width : 720 pixels
Height : 400 pixels
Display aspect ratio : 16:9
Frame rate : 25.000 fps
Color space : YUV
Chroma subsampling : 4:2:0
Bit depth : 8 bits
Scan type : Progressive
Compression mode : Lossy
Bits/(Pixel*Frame) : 0.228
Stream size : 920 MiB (92%)
Writing library : XviD 1.2.1 (UTC 2008-12-04)

Audio
ID : 1
Format : MPEG Audio
Format version : Version 1
Format profile : Layer 3
Mode : Joint stereo
Mode extension : MS Stereo
Codec ID : 55
Codec ID/Hint : MP3
Duration : 1h 18mn
Bit rate mode : Constant
Bit rate : 128 Kbps
Channel(s) : 2 channels
Sampling rate : 48.0 KHz
Compression mode : Lossy
Stream size : 71.8 MiB (7%)
Alignment : Aligned on interleaves
Interleave, duration : 80 ms (2.00 video frames)
Interleave, preload duration : 504 ms
Writing library : LAME3.98.2


EN ESPAÑOL | DE ESPAÑA




MANSOME || ¡QUE BONITO ES SER HOMBRE!

Código:
http://ul.to/roeeh0o1
http://ul.to/duezybwg
http://ul.to/814tycpr


‘’Yo soy de la época en la que un disco pirata era un disco no oficial de Led Zepelin, o de los Rolling Stones, eran estos vinilos blancos, con una fotocopia…
Para mi el disco pirata fue siempre algo difícil de conseguir, un articulo de colección, una especie de joya única’’ -Andrés Calamaro.

Ver Online HD

Comenta con tu Facebook :

Be the first to comment

Leave a Reply

Tu dirección de correo no será publicada.


*