Magic Johnson; da la cara (C+)-[SATRip]-[Castellano]-[2012]

[center][imG]http://s5.postimage.org/cr7ipjc1j/magic_johnson.png[/img]

[img]http://s5.postimage.org/4w7yk60fr/Sinopsis.png[/img]
[B]El 7 de noviembre del 1991, el legendario jugador de Los Ángeles Lakers Earvin ‘Magic’ Johnson sorprendió al mundo anunciando que se retiraría de forma inmediata de la NBA debido a que había sido diagnosticado como portador del VIH.[/B]

Aunque sólo era portador del virus y no había desarrollado SIDA, en aquellos años, la mera mención del VIH se entendía como una sentencia de muerte segura. Además, aún existían muchos prejuicios, ya que era considerada como una enfermedad que padecían sólo homosexuales y drogadictos y no se conocía exactamente ni su origen, ni la forma de contagio ni cómo se podía controlar el avance de la enfermedad, convirtiendo a los pacientes en estigmatizados sociales.

Este reportaje, dirigido por Nelson George, evalúa el impacto que la declaración de ‘Magic’ tuvo para humanizar esta pandemia mundial, enseñando que cualquiera podía ser portador del virus, independientemente de su condición sexual o social, y que se podía vivir con esa enfermedad.

[IMG]http://s5.postimage.org/cmeqpb2rb/RIPEADO.png[/IMG]
[quote][center][b]
Format                                   : AVI

Format/Info                              : Audio Video Interleave

File size                                : 997 MiB

Duration                                 : 1h 19mn

Overall bit rate                         : 1 747 Kbps

Writing application                      : VirtualDubMod 1.5.4.1 (build 2178/release)

Writing library                          : VirtualDubMod build 2178/release

 

Video

ID                                       : 0

Format                                   : MPEG-4 Visual

Format profile                           : Advanced [email protected]

Format settings, BVOP                    : 1

Format settings, QPel                    : No

Format settings, GMC                     : No warppoints

Format settings, Matrix                  : Custom

Codec ID                                 : XVID

Codec ID/Hint                            : XviD

Duration                                 : 1h 19mn

Bit rate                                 : 1 611 Kbps

Width                                    : 720 pixels

Height                                   : 400 pixels

Display aspect ratio                     : 16:9

Frame rate                               : 25.000 fps

Color space                              : YUV

Chroma subsampling                       : 4:2:0

Bit depth                                : 8 bits

Scan type                                : Progressive

Compression mode                         : Lossy

Bits/(Pixel*Frame)                       : 0.224

Stream size                              : 920 MiB (92%)

Writing library                          : XviD 1.2.1 (UTC 2008-12-04)

 

Audio

ID                                       : 1

Format                                   : MPEG Audio

Format version                           : Version 1

Format profile                           : Layer 3

Mode                                     : Joint stereo

Mode extension                           : MS Stereo

Codec ID                                 : 55

Codec ID/Hint                            : MP3

Duration                                 : 1h 19mn

Bit rate mode                            : Constant

Bit rate                                 : 128 Kbps

Channel(s)                               : 2 channels

Sampling rate                            : 48.0 KHz

Compression mode                         : Lossy

Stream size                              : 73.1 MiB (7%)

Alignment                                : Aligned on interleaves

Interleave, duration                     : 80 ms (2.00 video frames)

Interleave, preload duration             : 504 ms

[IMG]http://s5.postimage.org/c8kcfux83/flag_spain.png[/IMG]
[B]EN ESPAÑOL | DE ESPAÑA[/B] [/b][/center][/quote]

[img]http://s5.postimage.org/w2zgbtxvb/CAPTURAS.png[/img]
[img]http://s5.postimage.org/usqnnc62f/MAGl_KJ0_N50_N_D_L_KRA_s.jpg[/img]

[img]http://s5.postimage.org/yj19pofxz/DOWNLOAD.png[/img]
[url=http://ul.to/ref/7172673][img]http://uploaded.net/img/uploaded.png[/img][/url]
[B][SIZE=4]MAGIC JOHNSON[COLOR=BLUE] || [/COLOR][COLOR=RED]DA LA CARA[/COLOR][/SIZE][/B]
[CODE]http://ul.to/r5zox5pf
http://ul.to/u49g9ie5[/CODE]

[IMG]http://s5.postimage.org/dz3dhcerb/CULTURA.png[/IMG]
[B]‘’Yo soy de la época en la que un disco pirata era un disco no oficial de Led Zepelin, o de los Rolling Stones, eran estos vinilos blancos, con una fotocopia…
Para mi el disco pirata fue siempre algo difícil de conseguir, un articulo de colección, una especie de joya única’’ -Andrés Calamaro.[/B]
[/CENTER]

Ver Online HD

Comenta con tu Facebook :

Be the first to comment

Leave a Reply

Tu dirección de correo no será publicada.


*