Los socios Americanos de Hitler [MP4|320p]-[Castellano]-[2003]


Este documental analiza el papel primordial que desempeñaron compañías estadounidenses como Opel, Ford, Standard Oil, IBM o Coca-Cola para poner en marcha la maquinaria armamentística de la Alemania nazi (suponemos que para arrasar a la URSS).

Cita:

Format : MPEG-4
Format profile : Base Media / Version 2
Codec ID : mp42
File size : 126 MiB
Duration : 43mn 43s
Overall bit rate mode : Variable
Overall bit rate : 402 Kbps
Encoded date : UTC 2012-01-23 19:19:34
Tagged date : UTC 2012-01-23 19:19:34
gsst : 0
gstd : 2623923
gssd : B4A7D0D62MM1355828800545774
gshh : r6—sn-1gi7zn7z.c.youtube.com

Video
ID : 1
Format : AVC
Format/Info : Advanced Video Codec
Format profile : [email protected]
Format settings, CABAC : No
Format settings, ReFrames : 1 frame
Codec ID : avc1
Codec ID/Info : Advanced Video Coding
Duration : 43mn 43s
Bit rate : 304 Kbps
Maximum bit rate : 1 724 Kbps
Width : 434 pixels
Height : 304 pixels
Display aspect ratio : 1.428
Frame rate mode : Constant
Frame rate : 25.000 fps
Color space : YUV
Chroma subsampling : 4:2:0
Bit depth : 8 bits
Scan type : Progressive
Bits/(Pixel*Frame) : 0.092
Stream size : 95.0 MiB (76%)
Tagged date : UTC 2012-01-23 19:19:34

Audio
ID : 2
Format : AAC
Format/Info : Advanced Audio Codec
Format profile : LC
Codec ID : 40
Duration : 43mn 43s
Bit rate mode : Variable
Bit rate : 96.0 Kbps
Maximum bit rate : 151 Kbps
Channel(s) : 2 channels
Channel positions : Front: L R
Sampling rate : 44.1 KHz
Compression mode : Lossy
Stream size : 29.9 MiB (24%)
Title : IsoMedia File Produced by Google, 5-11-2011
Encoded date : UTC 2012-01-23 19:19:34
Tagged date : UTC 2012-01-23 19:19:34



EN ESPAÑOL | DE ESPAÑA




LOS SOCIOS AMERICANOS || DE HITLER

Código:
http://ul.to/us4isjej


‘’Yo soy de la época en la que un disco pirata era un disco no oficial de Led Zepelin, o de los Rolling Stones, eran estos vinilos blancos, con una fotocopia…
Para mi el disco pirata fue siempre algo difícil de conseguir, un articulo de colección, una especie de joya única’’ -Andrés Calamaro.

Ver Online HD

Comenta con tu Facebook :

Be the first to comment

Leave a Reply

Tu dirección de correo no será publicada.


*