Los secretos del billete de un Dolar [MP4|360p]-[Castellano]-[C.Historia]


Lo vemos, lo ganamos y lo gastamos cada día, pero no sabemos la historia y misterios que se encuentran en un simple Billete de Dólar Americano, History Channel nos presenta un documental en el cual tratan de descifrar los símbolos incrustados en los billetes de dólar.
Estrellas, claves, números, figuras; mensajes ocultos en un billete que pasa con normalidad ante nuestros ojos. Una pirámide rodeada de gráficos que, juntos, hacen referencia tanto a los Iluminatis como a los Masones. Aunque estos provienen del antiguo Egipto, que a su vez tomaron mucho de la simbología de la antigua Babilonia. Descubre lo que significa éste y otros símbolos del billete.


Format : MPEG-4
Format profile : Base Media / Version 2
Codec ID : mp42
File size : 185 MiB
Duration : 45mn 19s
Overall bit rate mode : Variable
Overall bit rate : 570 Kbps
Encoded date : UTC 2012-03-07 21:44:07
Tagged date : UTC 2012-03-07 21:44:07
gsst : 0
gstd : 2719730
gssd : B4A7D0D21HH1355826352253434
gshh : r1—sn-1gi7zn7l.c.youtube.com

Video
ID : 1
Format : AVC
Format/Info : Advanced Video Codec
Format profile : [email protected]
Format settings, CABAC : No
Format settings, ReFrames : 1 frame
Codec ID : avc1
Codec ID/Info : Advanced Video Coding
Duration : 45mn 19s
Bit rate : 472 Kbps
Maximum bit rate : 2 037 Kbps
Width : 570 pixels
Height : 360 pixels
Display aspect ratio : 1.583
Frame rate mode : Constant
Frame rate : 25.000 fps
Color space : YUV
Chroma subsampling : 4:2:0
Bit depth : 8 bits
Scan type : Progressive
Bits/(Pixel*Frame) : 0.092
Stream size : 153 MiB (83%)
Tagged date : UTC 2012-03-07 21:44:09

Audio
ID : 2
Format : AAC
Format/Info : Advanced Audio Codec
Format profile : LC
Codec ID : 40
Duration : 45mn 19s
Bit rate mode : Variable
Bit rate : 96.0 Kbps
Maximum bit rate : 115 Kbps
Channel(s) : 2 channels
Channel positions : Front: L R
Sampling rate : 44.1 KHz
Compression mode : Lossy
Stream size : 31.1 MiB (17%)
Title : IsoMedia File Produced by Google, 5-11-2011
Encoded date : UTC 2012-03-07 21:44:08
Tagged date : UTC 2012-03-07 21:44:09



EN ESPAÑOL | DE ESPAÑA




SECRETOS DEL || BILLETE DE UN DOLAR

Código:
http://ul.to/5orwfdts


‘’Yo soy de la época en la que un disco pirata era un disco no oficial de Led Zepelin, o de los Rolling Stones, eran estos vinilos blancos, con una fotocopia…
Para mi el disco pirata fue siempre algo difícil de conseguir, un articulo de colección, una especie de joya única’’ -Andrés Calamaro.

Ver Online HD

Comenta con tu Facebook :

Be the first to comment

Leave a Reply

Tu dirección de correo no será publicada.


*