Los Cines de Estados Unidos [C+]-[SATRip]-[2010]-[Castellano]


Estados Unidos es el país que cuenta con las salas de cine más bonitas, más sofisticadas y más grandes…

En Estados Unidos hay tantas variedades de cine como comunidades: películas para blancos, para negros, para religiosos, para gays, para nativos, para independientes… que se pueden ver en todo tipo de salas. Desde autocines en Texas hasta pases de películas en azoteas de Nueva York, donde está la sala de cine más antigua del país, pasando por las sesiones que un hombre improvisa en las calles de Los Ángeles con su furgoneta. Nuestro viajero, el realizador francés Stéphane Carrel, nos guía en una peculiar “road movie” a través de los modos más particulares de disfrutar del séptimo arte. Y nos lleva a un lugar insólito: la antigua mina de sal, en Kansas, donde se conservan las bobinas originales de las películas de Hollywood.

Cita:

Format : AVI
Format/Info : Audio Video Interleave
File size : 800 MiB
Duration : 55mn 17s
Overall bit rate : 2 022 Kbps

Video
ID : 0
Format : MPEG-4 Visual
Format profile : Advanced [email protected]
Format settings, BVOP : 1
Format settings, QPel : No
Format settings, GMC : No warppoints
Format settings, Matrix : Default (H.263)
Codec ID : XVID
Codec ID/Hint : XviD
Duration : 55mn 17s
Bit rate : 1 820 Kbps
Width : 720 pixels
Height : 576 pixels
Display aspect ratio : 16:9
Frame rate : 25.000 fps
Standard : PAL
Color space : YUV
Chroma subsampling : 4:2:0
Bit depth : 8 bits
Scan type : Progressive
Compression mode : Lossy
Bits/(Pixel*Frame) : 0.176
Stream size : 720 MiB (90%)
Writing library : XviD 64

Audio
ID : 1
Format : MPEG Audio
Format version : Version 1
Format profile : Layer 3
Mode : Joint stereo
Mode extension : MS Stereo
Codec ID : 55
Codec ID/Hint : MP3
Duration : 55mn 17s
Bit rate mode : Constant
Bit rate : 192 Kbps
Channel(s) : 2 channels
Sampling rate : 48.0 KHz
Compression mode : Lossy
Stream size : 75.9 MiB (9%)
Alignment : Aligned on interleaves
Interleave, duration : 40 ms (1.00 video frame)
Interleave, preload duration : 504 ms
Writing library : LAME3.98.


EN ESPAÑOL | DE ESPAÑA




LOS CINES DE || ESTADOS UNIDOS

http://ul.to/m9zv8ul4
http://ul.to/52sn7072


‘’Yo soy de la época en la que un disco pirata era un disco no oficial de Led Zepelin, o de los Rolling Stones, eran estos vinilos blancos, con una fotocopia…
Para mi el disco pirata fue siempre algo difícil de conseguir, un articulo de colección, una especie de joya única’’ -Andrés Calamaro.

Ver Online HD

Comenta con tu Facebook :

Be the first to comment

Leave a Reply

Tu dirección de correo no será publicada.


*