Los Chinos; adictos a la suerte [2011]-[SATRip]-[Castellano]


A pesar de que el juego tiene una larga tradición en la cultura de China, el gobierno sigue manteniendo la prohibición de apostar con dinero de por medio. Hong Kong y Macao, sus regiones administrativas especiales, se han convertido en los principales destinos de los jugadores chinos.

Con la diferencia entre ricos y pobres cada vez más acentuada en el país, es ahora cuando los chinos se han obsesionado como nunca con la idea de ganar dinero fácil.

A través de historias personales, Odisea ofrece este impactante documental que explora la búsqueda emocional de las creencias y la identidad de la China moderna, una cultura milenaria que ahora está absolutamente centrada en ganar dinero.

Cita:

Format : AVI
Format/Info : Audio Video Interleave
File size : 838 MiB
Duration : 53mn 1s
Overall bit rate : 2 210 Kbps
Writing application : VirtualDubMod 1.5.10.2 (build 2540/release) VirtualDubMod build 2540/release

Video
ID : 0
Format : MPEG-4 Visual
Format profile : Advanced [email protected]
Format settings, BVOP : No
Format settings, QPel : No
Format settings, GMC : No warppoints
Format settings, Matrix : Custom
Codec ID : XVID
Codec ID/Hint : XviD
Duration : 53mn 1s
Bit rate : 2 072 Kbps
Width : 720 pixels
Height : 416 pixels
Display aspect ratio : 16:9
Frame rate : 25.000 fps
Color space : YUV
Chroma subsampling : 4:2:0
Bit depth : 8 bits
Scan type : Progressive
Compression mode : Lossy
Bits/(Pixel*Frame) : 0.277
Stream size : 786 MiB (94%)
Writing library : XviD 64

Audio
ID : 1
Format : MPEG Audio
Format version : Version 1
Format profile : Layer 3
Mode : Joint stereo
Mode extension : MS Stereo
Codec ID : 55
Codec ID/Hint : MP3
Duration : 53mn 1s
Bit rate mode : Constant
Bit rate : 128 Kbps
Channel(s) : 2 channels
Sampling rate : 44.1 KHz
Compression mode : Lossy
Stream size : 48.5 MiB (6%)
Alignment : Split accross interleaves
Interleave, duration : 40 ms (1.00 video frame)
Interleave, preload duration : 500 ms
Writing library : LAME3.98r
Encoding settings : -m j -V 4 -q 2 -lowpass 17 -b 128


EN ESPAÑOL | DE ESPAÑA




CHINOS || ADICTOS A LA SUERTE

http://ul.to/nm1h9xge
http://ul.to/yz9syaic


‘’Yo soy de la época en la que un disco pirata era un disco no oficial de Led Zepelin, o de los Rolling Stones, eran estos vinilos blancos, con una fotocopia…
Para mi el disco pirata fue siempre algo difícil de conseguir, un articulo de colección, una especie de joya única’’ -Andrés Calamaro.

Ver Online HD

Comenta con tu Facebook :

Be the first to comment

Leave a Reply

Tu dirección de correo no será publicada.


*