Los archivos secretos de los Nazis ”Mengele” [MP4|720p]-[Castellano]-[2011]


Josef Rudolf Mengele (Günzburg, Baviera, 16 de marzo de 1911 — Bertioga, Brasil, 7 de febrero de 1979) fue un médico y criminal de guerra nazi, especialmente reconocido por sus experimentos con seres humanos en el campo de concentración y exterminio de Auschwitz, Polonia.

Sus conocimientos en Anatomía, Cirugía, Genética, Enfermedades, Tratamientos, entre otros aspectos, en su facultad de profesional de la Medicina, los aplicó analizando, estudiando, torturando y ejecutando a miles de prisioneros durante la Segunda Guerra Mundial.

Es por esto que luego de revelarse su cometido, se ganó el apodo de El Ángel de la Muerte.


Format : MPEG-4
Format profile : Base Media / Version 2
Codec ID : mp42
File size : 763 MiB
Duration : 52mn 26s
Overall bit rate mode : Variable
Overall bit rate : 2 034 Kbps
Encoded date : UTC 2012-12-01 06:52:10
Tagged date : UTC 2012-12-01 06:52:10

Video
ID : 1
Format : AVC
Format/Info : Advanced Video Codec
Format profile : [email protected]
Format settings, CABAC : Yes
Format settings, ReFrames : 1 frame
Format settings, GOP : M=1, N=60
Codec ID : avc1
Codec ID/Info : Advanced Video Coding
Duration : 52mn 26s
Bit rate : 1 839 Kbps
Maximum bit rate : 7 459 Kbps
Width : 1 280 pixels
Height : 720 pixels
Display aspect ratio : 16:9
Frame rate mode : Constant
Frame rate : 25.000 fps
Color space : YUV
Chroma subsampling : 4:2:0
Bit depth : 8 bits
Scan type : Progressive
Bits/(Pixel*Frame) : 0.080
Stream size : 690 MiB (90%)
Tagged date : UTC 2012-12-01 06:53:03

Audio
ID : 2
Format : AAC
Format/Info : Advanced Audio Codec
Format profile : LC
Codec ID : 40
Duration : 52mn 26s
Bit rate mode : Variable
Bit rate : 192 Kbps
Maximum bit rate : 205 Kbps
Channel(s) : 2 channels
Channel positions : Front: L R
Sampling rate : 44.1 KHz
Compression mode : Lossy
Stream size : 72.0 MiB (9%)
Encoded date : UTC 2012-12-01 06:52:36
Tagged date : UTC 2012-12-01 06:53:03



EN ESPAÑOL | DE ESPAÑA




LOS ARCHIVOS SECRETOS DE || LOS NAZIS MENGELE

http://ul.to/uq1cv7ww
http://ul.to/jweqk5sn
Ver Online HD

Comenta con tu Facebook :

Be the first to comment

Leave a Reply

Tu dirección de correo no será publicada.


*