Lluvia en el Campo de Batalla [2003]-[SATRip]-[Castellano]

[center][imG]http://s5.postimage.org/jik5n5wvr/batalla_de_hoth_32.png[/img]

[img]http://s5.postimage.org/4w7yk60fr/Sinopsis.png[/img]
[B]”Esta simple palabra, lluvia, que no significa nada para el civil con un techo sobre su cabeza, esta simple palabra encierra todo el horror para los hombres en el campo de batalla”[/B]

Así escribía un desdichado soldado en la Primera Guerra Mundial. Sus sentimientos habrían sido compartidos no sólo por las generaciones de hombres corrientes que lucharon en guerras, sino también por los comandantes, cuyos planes de batalla se perdían en el caos cuando los cielos se abrían. En este documental, exploraremos los efectos que la lluvia tuvo sobre algunas de las batallas y campañas más cruciales de la historia, entre ellas, la batalla de Agincourt en 1415 o la batalla de Waterloo en 1815. Asimismo, conoceremos cómo la lluvia afectó a las grandes campañas de la Segunda Guerra Mundial, incluido el desembarco del Día D, la lucha por Italia y la campaña en Birmania.

[IMG]http://s5.postimage.org/cmeqpb2rb/RIPEADO.png[/IMG]
[quote][center][b]
Format                                   : AVI

Format/Info                              : Audio Video Interleave

File size                                : 440 MiB

Duration                                 : 48mn 1s

Overall bit rate                         : 1 280 Kbps

Movie name                               : DVD_VR

Writing application                      : MEncoder dev-CVS-20060519-3.4.2

Writing library                          : MPlayer

 

Video

ID                                       : 0

Format                                   : MPEG-4 Visual

Format profile                           : [email protected]

Format settings, BVOP                    : No

Format settings, QPel                    : No

Format settings, GMC                     : No warppoints

Format settings, Matrix                  : Default (H.263)

Codec ID                                 : DIVX

Codec ID/Info                            : Project Mayo

Codec ID/Hint                            : DivX 4

Duration                                 : 48mn 1s

Bit rate                                 : 1 139 Kbps

Width                                    : 480 pixels

Height                                   : 360 pixels

Display aspect ratio                     : 4:3

Frame rate                               : 25.000 fps

Color space                              : YUV

Chroma subsampling                       : 4:2:0

Bit depth                                : 8 bits

Scan type                                : Progressive

Compression mode                         : Lossy

Bits/(Pixel*Frame)                       : 0.264

Stream size                              : 391 MiB (89%)

Writing library                          : Lavc51.9.0

 

Audio

ID                                       : 1

Format                                   : MPEG Audio

Format version                           : Version 1

Format profile                           : Layer 3

Mode                                     : Joint stereo

Codec ID                                 : 55

Codec ID/Hint                            : MP3

Duration                                 : 48mn 1s

Bit rate mode                            : Constant

Bit rate                                 : 128 Kbps

Channel(s)                               : 2 channels

Sampling rate                            : 48.0 KHz

Compression mode                         : Lossy

Stream size                              : 44.0 MiB (10%)

Alignment                                : Aligned on interleaves

Interleave, duration                     : 24 ms (0.60 video frame)

Interleave, preload duration             : 336 ms

[IMG]http://s5.postimage.org/c8kcfux83/flag_spain.png[/IMG]
[B]EN ESPAÑOL | DE ESPAÑA[/B] [/b][/center][/quote]

[img]http://s5.postimage.org/w2zgbtxvb/CAPTURAS.png[/img]
[img]http://s5.postimage.org/boeyo0zp3/LLUVl_A_N_L_CMP0_D_B4_T4_LLA_s.jpg[/img]

[img]http://s5.postimage.org/yj19pofxz/DOWNLOAD.png[/img]
[url=http://ul.to/ref/7172673][img]http://uploaded.net/img/uploaded.png[/img][/url]
[B][SIZE=4]LLUVIA EN EL[COLOR=BLUE] || [/COLOR][COLOR=RED]CAMPO DE BATALLA[/COLOR][/SIZE][/B]
[CODE]http://ul.to/691v1oq5[/CODE]

[IMG]http://s5.postimage.org/dz3dhcerb/CULTURA.png[/IMG]
[B]‘’Yo soy de la época en la que un disco pirata era un disco no oficial de Led Zepelin, o de los Rolling Stones, eran estos vinilos blancos, con una fotocopia…
Para mi el disco pirata fue siempre algo difícil de conseguir, un articulo de colección, una especie de joya única’’ -Andrés Calamaro.[/B]
[/CENTER]

 

Ver Online HD

Comenta con tu Facebook :

Be the first to comment

Leave a Reply

Tu dirección de correo no será publicada.


*