Lemoniz; la central fantasma [MP4|360p]-[Castellano]-[2006]


“Lemóniz, la central fantasma” rememora los acontecimientos históricos, testimonios y detalles contados por los protagonistas que los vivieron en primera persona.

Personas como Pedro Costa Morata, ingeniero que participó en la construcción de Lemóniz y posteriormente se pasó al activismo antinuclear; Javier Olaverri, ingeniero nuclear; Carlos Garaikoetxea, ex-lehendakari; Imanol Uribe, director de cine; Santiago San Antonio, director de Foro Nuclear; Marisa Uribe, artista visual.

La cala de Basordas (Armintza), a escasos kilómetros de Bilbao, una de las zonas más espectaculares de la costa de Euskadi, paraíso de buceadores y mariscadores y donde se pescaban las mejores langostas de todo el Cantábrico, fue el lugar elegido para emplazar la Central Nuclear de Lemóniz. En su construcción se emplearon más de 1.000 toneladas de hierro y 200.000 metros cúbicos de hormigón armado.

La amenaza nuclear en aquellos días era real: la Guerra Fría, los misiles intercontinentales, las pruebas nucleares en el Pacífico, el accidente de Palomares o el accidente de la Central Nuclear de Harrisburg, habían hecho sonar la alarma contra la energía nuclear. En este ambiente se construye la planta de Lemóniz.


Format : MPEG-4
Format profile : Base Media / Version 2
Codec ID : mp42
File size : 121 MiB
Duration : 44mn 57s
Overall bit rate mode : Variable
Overall bit rate : 376 Kbps
Encoded date : UTC 2012-04-07 19:46:08
Tagged date : UTC 2012-04-07 19:46:08
gsst : 0
gstd : 2698088
gssd : B4A7D0D25MH1355828725140997
gshh : r19—sn-1gi7zn7l.c.youtube.com

Video
ID : 1
Format : AVC
Format/Info : Advanced Video Codec
Format profile : [email protected]
Format settings, CABAC : No
Format settings, ReFrames : 1 frame
Codec ID : avc1
Codec ID/Info : Advanced Video Coding
Duration : 44mn 57s
Bit rate : 278 Kbps
Maximum bit rate : 1 158 Kbps
Width : 480 pixels
Height : 360 pixels
Display aspect ratio : 4:3
Frame rate mode : Constant
Frame rate : 24.000 fps
Color space : YUV
Chroma subsampling : 4:2:0
Bit depth : 8 bits
Scan type : Progressive
Bits/(Pixel*Frame) : 0.067
Stream size : 89.4 MiB (74%)
Tagged date : UTC 2012-04-07 19:46:10

Audio
ID : 2
Format : AAC
Format/Info : Advanced Audio Codec
Format profile : LC
Codec ID : 40
Duration : 44mn 57s
Bit rate mode : Variable
Bit rate : 96.0 Kbps
Maximum bit rate : 143 Kbps
Channel(s) : 2 channels
Channel positions : Front: L R
Sampling rate : 44.1 KHz
Compression mode : Lossy
Stream size : 30.9 MiB (26%)
Title : IsoMedia File Produced by Google, 5-11-2011
Encoded date : UTC 2012-04-07 19:46:09
Tagged date : UTC 2012-04-07 19:46:10



EN ESPAÑOL | DE ESPAÑA




LEMONIZ || LA CENTRAL FANTASMA

Código:
http://ul.to/5gevd061
Ver Online HD

Comenta con tu Facebook :

Be the first to comment

Leave a Reply

Tu dirección de correo no será publicada.


*