Las víctimas de Facebook [SATRip][Odisea][Castellano][2011]


Facebook se ha convertido en la red social más exitosa del mundo, con unos mil millones de usuarios registrados. Nuestras relaciones, nuestros pensamientos, nuestras vidas e incluso nuestras muertes, todo queda registrado de manera rutinaria en Facebook.

Esto representa un cambio paradigmático tan importante en la comunicación como lo fue en su día la imprenta, el telégrafo o la televisión. De este modo, las situaciones bochornosas y los problemas parecen inevitables. En este documental, les acercaremos a las inesperadas consecuencias derivadas del inocente hecho de compartir su información personal en las redes sociales.

Conoceremos a gente que ha perdido sus trabajos, sus familias, su dignidad e incluso algunos que han acabado en la cárcel. Para entenderlo contaremos con las reflexiones de expertos en las áreas de cambio social, en seguridad en Internet y en medios de comunicación contemporáneos. Filmada en Canadá, Estados Unidos y Reino Unido, este completo documental recoge los peligros de Facebook, una de las armas de cambios sociales más influyentes de la actualidad..

Cita:
Format : AVI
Format/Info : Audio Video Interleave
File size : 863 MiB
Duration : 54mn 0s
Overall bit rate : 2 234 Kbps

Video
ID : 0
Format : MPEG-4 Visual
Format profile : Advanced [email protected]
Format settings, BVOP : No
Format settings, QPel : No
Format settings, GMC : No warppoints
Format settings, Matrix : Custom
Codec ID : XVID
Codec ID/Hint : XviD
Duration : 54mn 0s
Bit rate : 2 096 Kbps
Width : 720 pixels
Height : 416 pixels
Display aspect ratio : 1.731
Frame rate : 25.000 fps
Color space : YUV
Chroma subsampling : 4:2:0
Bit depth : 8 bits
Scan type : Progressive
Compression mode : Lossy
Bits/(Pixel*Frame) : 0.280
Stream size : 810 MiB (94%)
Writing library : XviD 1.2.1 (UTC 2008-12-04)

Audio
ID : 1
Format : MPEG Audio
Format version : Version 1
Format profile : Layer 3
Mode : Joint stereo
Mode extension : MS Stereo
Codec ID : 55
Codec ID/Hint : MP3
Duration : 54mn 0s
Bit rate mode : Constant
Bit rate : 128 Kbps
Channel(s) : 2 channels
Sampling rate : 48.0 KHz
Compression mode : Lossy
Stream size : 49.4 MiB (6%)
Alignment : Aligned on interleaves
Interleave, duration : 40 ms (1.00 video frame)
Interleave, preload duration : 480 ms
Writing library : LAME3.98.2


EN ESPAÑOL | DE ESPAÑA




VICTIMAS DEL || FACEBOOK

Código:
http://ul.to/xvr95v1z
http://ul.to/j6ppif7g


‘’Yo soy de la época en la que un disco pirata era un disco no oficial de Led Zepelin, o de los Rolling Stones, eran estos vinilos blancos, con una fotocopia…
Para mi el disco pirata fue siempre algo difícil de conseguir, un articulo de colección, una especie de joya única’’ -Andrés Calamaro.

Ver Online HD

Comenta con tu Facebook :

Be the first to comment

Leave a Reply

Tu dirección de correo no será publicada.


*