Las Cuevas misteriosas de Guangxi [MP4|720p]-[2012]-[NatGeo]-[Castellano]


El objetivo es resolver el misterio de por qué se concentran en una pequeña zona de China cincuenta de las dolinas más grandes del mundo, cavidades naturales en el suelo llamadas Tiankeng


Format : MPEG-4
Format profile : Base Media / Version 2
Codec ID : mp42
File size : 713 MiB
Duration : 45mn 0s
Overall bit rate mode : Variable
Overall bit rate : 2 215 Kbps
Encoded date : UTC 2012-11-11 12:31:32
Tagged date : UTC 2012-11-11 12:31:32

Video
ID : 1
Format : AVC
Format/Info : Advanced Video Codec
Format profile : [email protected]
Format settings, CABAC : Yes
Format settings, ReFrames : 1 frame
Codec ID : avc1
Codec ID/Info : Advanced Video Coding
Duration : 45mn 0s
Bit rate : 2 021 Kbps
Maximum bit rate : 8 701 Kbps
Width : 1 280 pixels
Height : 720 pixels
Display aspect ratio : 16:9
Frame rate mode : Constant
Frame rate : 25.000 fps
Color space : YUV
Chroma subsampling : 4:2:0
Bit depth : 8 bits
Scan type : Progressive
Bits/(Pixel*Frame) : 0.088
Stream size : 650 MiB (91%)
Tagged date : UTC 2012-11-11 12:32:22

Audio
ID : 2
Format : AAC
Format/Info : Advanced Audio Codec
Format profile : LC
Codec ID : 40
Duration : 44mn 59s
Bit rate mode : Variable
Bit rate : 192 Kbps
Maximum bit rate : 201 Kbps
Channel(s) : 2 channels
Channel positions : Front: L R
Sampling rate : 44.1 KHz
Compression mode : Lossy
Stream size : 61.8 MiB (9%)
Encoded date : UTC 2012-11-11 12:31:50
Tagged date : UTC 2012-11-11 12:32:22



EN ESPAÑOL | DE ESPAÑA




LAS CUEVAS MISTERIOSAS || DE GUANGXI

http://ul.to/pgwifdpv
http://ul.to/7gr3vhk1


‘’Yo soy de la época en la que un disco pirata era un disco no oficial de Led Zepelin, o de los Rolling Stones, eran estos vinilos blancos, con una fotocopia…
Para mi el disco pirata fue siempre algo difícil de conseguir, un articulo de colección, una especie de joya única’’ -Andrés Calamaro.

Ver Online HD

Comenta con tu Facebook :

Be the first to comment

Leave a Reply

Tu dirección de correo no será publicada.


*