Las 7 Maravillas del Antiguo Egipto [HDTV|720p]-[NatGeo]-[Castellano]-[2012]-[UL]

[center][imG]http://s5.postimage.org/5byfs2htj/EGIPTO.png[/img]

[img]http://s5.postimage.org/4w7yk60fr/Sinopsis.png[/img]
[B]Este documental propone un recorrido por siete grandes hitos arquitectónicos de Egipto, a través de visitas a cada uno de estos lugares y de reconstrucciones virtuales que desvelan las claves de su construcción y muestran su aspecto original.[/B]

De la mano de egiptólogos como el profesor Gaballa Ali Gaballa, de la Universidad de El Cairo, y Charles van Sicien III, del Centro Franco-Egipcio de Karnak, conoceremos las técnicas empleadas para realizar las portentosas tumbas del Valle de los Reyes, para levantar el inmenso santuario de Karnak o para construir los fabulosos templos de Abu Simbel, horadados en la roca de Nubia.

[IMG]http://s5.postimage.org/hrv5ltb5j/EGIPTO2.png[/IMG]

[IMG]http://s5.postimage.org/cmeqpb2rb/RIPEADO.png[/IMG]
[quote][center][b]
Format                                   : AVI

Format/Info                              : Audio Video Interleave

File size                                : 1.06 GiB

Duration                                 : 52mn 5s

Overall bit rate                         : 2 905 Kbps

Writing application                      : VirtualDubMod 1.5.10.2 (build 2542/release)

Writing library                          : VirtualDubMod build 2542/release

 

Video

ID                                       : 0

Format                                   : MPEG-4 Visual

Format profile                           : Advanced [email protected]

Format settings, BVOP                    : 2

Format settings, QPel                    : No

Format settings, GMC                     : No warppoints

Format settings, Matrix                  : Default (H.263)

Codec ID                                 : XVID

Codec ID/Hint                            : XviD

Duration                                 : 52mn 5s

Bit rate                                 : 2 507 Kbps

Width                                    : 1 280 pixels

Height                                   : 720 pixels

Display aspect ratio                     : 16:9

Frame rate                               : 25.000 fps

Color space                              : YUV

Chroma subsampling                       : 4:2:0

Bit depth                                : 8 bits

Scan type                                : Progressive

Compression mode                         : Lossy

Bits/(Pixel*Frame)                       : 0.109

Stream size                              : 934 MiB (86%)

Writing library                          : XviD 64

 

Audio #1

ID                                       : 1

Format                                   : MPEG Audio

Format version                           : Version 1

Format profile                           : Layer 3

Mode                                     : Joint stereo

Mode extension                           : MS Stereo

Codec ID                                 : 55

Codec ID/Hint                            : MP3

Duration                                 : 52mn 5s

Bit rate mode                            : Constant

Bit rate                                 : 192 Kbps

Channel(s)                               : 2 channels

Sampling rate                            : 48.0 KHz

Compression mode                         : Lossy

Stream size                              : 71.5 MiB (7%)

Alignment                                : Aligned on interleaves

Interleave, duration                     : 40 ms (1.00 video frame)

Interleave, preload duration             : 504 ms

Writing library                          : LAME3.92

Encoding settings                        : -m j -V 1 -q 2 -lowpass 19.5 -b 192

 

Audio #2

ID                                       : 2

Format                                   : MPEG Audio

Format version                           : Version 1

Format profile                           : Layer 3

Mode                                     : Joint stereo

Mode extension                           : MS Stereo

Codec ID                                 : 55

Codec ID/Hint                            : MP3

Duration                                 : 52mn 5s

Bit rate mode                            : Constant

Bit rate                                 : 192 Kbps

Channel(s)                               : 2 channels

Sampling rate                            : 48.0 KHz

Compression mode                         : Lossy

Stream size                              : 71.5 MiB (7%)

Alignment                                : Aligned on interleaves

Interleave, duration                     : 40 ms (1.00 video frame)

Interleave, preload duration             : 504 ms

Writing library                          : LAME3.92

Encoding settings                        : -m j -V 1 -q 2 -lowpass 19.5 -b 192

[img]http://uploaded.net/img/uploaded.png[/img]
PARTES DEL ARCHIVO: 3 – 2 de 450MB + 1 de 180MB[/b][/center][/quote]

[img]http://s5.postimage.org/w2zgbtxvb/CAPTURAS.png[/img]
[img]http://s5.postimage.org/6swx6x3nb/LA5_7_MAR4_Vl_LLA5_D_ANTl_GU03_Gl_PT0_s.jpg[/img]

[img]http://s5.postimage.org/yj19pofxz/DOWNLOAD.png[/img]
[IMG]http://s5.postimage.org/za0fep3g3/uploaded.png[/IMG]
[B][SIZE=4]LAS SIETE MARAVILLAS DEL[COLOR=BLUE]||[/COLOR] [COLOR=RED]ANTIGUO EGIPTO[/COLOR][/SIZE][/B]
[CODE]http://ul.to/jzlymzde
http://ul.to/y53fs8bn
http://ul.to/hx4ume2w[/CODE] [/CENTER]

Ver Online HD

Comenta con tu Facebook :

Be the first to comment

Leave a Reply

Tu dirección de correo no será publicada.


*