La última batalla de los 300 [MP4|720p]-[Castellano]-[2009]


480 A.C. – En un estrecho paso al norte de Grecia, siete mil soldados de la Antigua Grecia aguardan un impacto de proporciones épicas. Pronto hará frente a la mayor fuerza armada reunida hasta hoy… la máquina de guerra del poderoso Imperio Persa

Los Griegos son conducidos por trescientos de los guerreros más feroces del mundo antiguo… los Espartanos. Su líder es el audaz Rey Leónidas, hombre que tras esta batalla quedaría catapultado en leyenda. Este famoso conflicto será recordando siempre como la Batalla de las Termópilas. Cuando termina, cada Espartano habría sacrificado su vida por la libertad. Durante siglos los escoleras han estudiado la batalla de las Termópilas. Es la batalla que determinaría el curso de la civilización occidental… donde trescientos Espartanos ofrecieron su última resistencia…

Cita:

Format : MPEG-4
Format profile : Base Media / Version 2
Codec ID : mp42
File size : 946 MiB
Duration : 1h 30mn
Overall bit rate mode : Variable
Overall bit rate : 1 459 Kbps
Encoded date : UTC 2012-11-09 05:42:11
Tagged date : UTC 2012-11-09 05:42:11
gsst : 0
gstd : 5438391
gssd : B400F7048HH1355827896445228
gshh : r5—sn-xjpm-q0ns.c.youtube.com

Video
ID : 1
Format : AVC
Format/Info : Advanced Video Codec
Format profile : [email protected]
Format settings, CABAC : Yes
Format settings, ReFrames : 1 frame
Codec ID : avc1
Codec ID/Info : Advanced Video Coding
Duration : 1h 30mn
Bit rate : 1 264 Kbps
Maximum bit rate : 3 883 Kbps
Width : 1 280 pixels
Height : 720 pixels
Display aspect ratio : 16:9
Frame rate mode : Constant
Frame rate : 30.000 fps
Color space : YUV
Chroma subsampling : 4:2:0
Bit depth : 8 bits
Scan type : Progressive
Bits/(Pixel*Frame) : 0.046
Stream size : 819 MiB (87%)
Tagged date : UTC 2012-11-09 05:43:37

Audio
ID : 2
Format : AAC
Format/Info : Advanced Audio Codec
Format profile : LC
Codec ID : 40
Duration : 1h 30mn
Bit rate mode : Variable
Bit rate : 192 Kbps
Maximum bit rate : 202 Kbps
Channel(s) : 2 channels
Channel positions : Front: L R
Sampling rate : 44.1 KHz
Compression mode : Lossy
Stream size : 124 MiB (13%)
Title : IsoMedia File Produced by Google, 5-11-2011
Encoded date : UTC 2012-11-09 05:42:51
Tagged date : UTC 2012-11-09 05:43:37



EN ESPAÑOL | DE ESPAÑA




LA ÚLTIMA BATALLA DE || LOS 300

Código:
http://ul.to/svkwdaz9
http://ul.to/v23klq2j
http://ul.to/41gmv3zc
http://ul.to/ldw1y3i2


‘’Yo soy de la época en la que un disco pirata era un disco no oficial de Led Zepelin, o de los Rolling Stones, eran estos vinilos blancos, con una fotocopia…
Para mi el disco pirata fue siempre algo difícil de conseguir, un articulo de colección, una especie de joya única’’ -Andrés Calamaro.

Ver Online HD

Comenta con tu Facebook :

Be the first to comment

Leave a Reply

Tu dirección de correo no será publicada.


*