La tumba perdida de Jesus [SATRip]-[2007]-[Castellano]


El 4 de marzo de 2007, el canal de Televisión Discovery Channel difundió el documental “La Tumba Perdida de Jesús” (The Lost Tomb of Jesus), dirigida por Simcha Jacobovici y producida por James Cameron

El documental está basado en la tumba descubierta en Talpiot (Jerusalén) en 1980, en donde se encontraron los restos de 10 Osarios, de los cuales 6 llevaban una serie de inscripciones con las que se pretende vincular a los nombres de Jesús, María Magdalena, María y José, personajes de la Biblia.

Aquí se abre nuevamente el debate, en que La tumba de Talpiot, contenía o no, los restos de Jesús y su familia…

Cita:

Format : AVI
Format/Info : Audio Video Interleave
File size : 877 MiB
Duration : 1h 45mn
Overall bit rate : 1 163 Kbps
Writing application : MEncoder SVN-r29352(20090610-gcc4.3.3)
Writing library : MPlayer

Video
ID : 0
Format : MPEG-4 Visual
Format profile : Advanced [email protected]
Format settings, BVOP : 2
Format settings, QPel : No
Format settings, GMC : No warppoints
Format settings, Matrix : Default (H.263)
Codec ID : XVID
Codec ID/Hint : XviD
Duration : 1h 45mn
Bit rate : 1 022 Kbps
Width : 720 pixels
Height : 576 pixels
Display aspect ratio : 4:3
Frame rate : 25.000 fps
Standard : PAL
Color space : YUV
Chroma subsampling : 4:2:0
Bit depth : 8 bits
Scan type : Progressive
Compression mode : Lossy
Bits/(Pixel*Frame) : 0.099
Stream size : 771 MiB (88%)
Writing library : XviD 1.2.1 (UTC 2008-12-04)

Audio
ID : 1
Format : MPEG Audio
Format version : Version 1
Format profile : Layer 3
Mode : Joint stereo
Mode extension : MS Stereo
Codec ID : 55
Codec ID/Hint : MP3
Duration : 1h 45mn
Bit rate mode : Constant
Bit rate : 128 Kbps
Channel(s) : 2 channels
Sampling rate : 44.1 KHz
Compression mode : Lossy
Delay relative to video : 40ms
Stream size : 96.5 MiB (11%)
Alignment : Aligned on interleaves
Interleave, duration : 26 ms (0.65 video frame)
Interleave, preload duration : 522 ms
Writing library : LAME3.98


EN ESPAÑOL | DE ESPAÑA




LA TUMBA PERDIDA DE || JESUS

http://ul.to/8g142p91
http://ul.to/c2iiq1bv


‘’Yo soy de la época en la que un disco pirata era un disco no oficial de Led Zepelin, o de los Rolling Stones, eran estos vinilos blancos, con una fotocopia…
Para mi el disco pirata fue siempre algo difícil de conseguir, un articulo de colección, una especie de joya única’’ -Andrés Calamaro.

Ver Online HD

Comenta con tu Facebook :

Be the first to comment

Leave a Reply

Tu dirección de correo no será publicada.


*