La revelación de las Pirámides [2012]-[Película;Documental]-[mp4-aaC]-[UL]

[center][imG]http://s5.postimage.org/rjej5qunr/image.png[/img]

[img]http://s5.postimage.org/4w7yk60fr/Sinopsis.png[/img]
[B]Documental acerca de los misterios que hay detrás de la Gran Pirámide y del mensaje que oculta para todos nosotros.[/B]

Basado en el libro “La revelación de las Pirámides”, de Jacques Grimault, se analizan logros arquitectónicos difíciles de  con las técnicas actuales, imagínense la complejidad del asunto si miramos 5.000 o incluso 13.000 años atrás.

¿Como puede ser que culturas alejadas por miles de kilómetros, incluso miles de años construyeran con los mismos métodos y precisión?

[imG]http://s5.postimage.org/aud39ty2f/image.png[/img]

Giza, Teotihuacan, la Isla de Pascua, Machu Picchu.. todos estos misteriosos lugares comparten conocimientos tanto en los métodos de construcción de sus grandes obras faraónicas (e imposibles) como en su concepción del tiempo y el universo.

[IMG]http://s5.postimage.org/cmeqpb2rb/RIPEADO.png[/IMG]
[quote][center][b]
Format                                   : MPEG-4

Format profile                           : Base Media / Version 2

Codec ID                                 : mp42

File size                                : 1.26 GiB

Duration                                 : 1h 41mn

Overall bit rate mode                    : Variable

Overall bit rate                         : 1 767 Kbps

Encoded date                             : UTC 2012-08-01 15:39:02

Tagged date                              : UTC 2012-08-01 15:39:02

gsst                                     : 0

gstd                                     : 6111096

gssd                                     : BADC203C3HH1354813613070695

gshh                                     : r9—sn-h5q7en7d.c.youtube.com

 

Video

ID                                       : 1

Format                                   : AVC

Format/Info                              : Advanced Video Codec

Format profile                           : [email protected]

Format settings, CABAC                   : Yes

Format settings, ReFrames                : 1 frame

Codec ID                                 : avc1

Codec ID/Info                            : Advanced Video Coding

Duration                                 : 1h 41mn

Bit rate                                 : 1 573 Kbps

Maximum bit rate                         : 10.8 Mbps

Width                                    : 1 280 pixels

Height                                   : 688 pixels

Display aspect ratio                     : 1.860

Frame rate mode                          : Constant

Frame rate                               : 25.000 fps

Color space                              : YUV

Chroma subsampling                       : 4:2:0

Bit depth                                : 8 bits

Scan type                                : Progressive

Bits/(Pixel*Frame)                       : 0.071

Stream size                              : 1.12 GiB (89%)

Tagged date                              : UTC 2012-08-01 15:40:33

 

Audio

ID                                       : 2

Format                                   : AAC

Format/Info                              : Advanced Audio Codec

Format profile                           : LC

Codec ID                                 : 40

Duration                                 : 1h 41mn

Bit rate mode                            : Variable

Bit rate                                 : 192 Kbps

Maximum bit rate                         : 202 Kbps

Channel(s)                               : 2 channels

Channel positions                        : Front: L R

Sampling rate                            : 44.1 KHz

Compression mode                         : Lossy

Stream size                              : 140 MiB (11%)

Title                                    : IsoMedia File Produced by Google, 5-11-2011

Encoded date                             : UTC 2012-08-01 15:39:47

Tagged date                              : UTC 2012-08-01 15:40:33

[img]http://uploaded.net/img/uploaded.png[/img]
PARTES DEL ARCHIVO: 3 – 2 de 450MB + 1 de 390MB[/b][/center][/quote]

[img]http://s5.postimage.org/w2zgbtxvb/CAPTURAS.png[/img]
[img]http://s5.postimage.org/nkhbmx60n/LA_R3_V3_LACl0_N_D_LS_Pl_RAMl_D3_S_720p_s.jpg[/img]

[img]http://s5.postimage.org/yj19pofxz/DOWNLOAD.png[/img]
[IMG]http://s5.postimage.org/za0fep3g3/uploaded.png[/IMG]
[B][SIZE=4]EL MISTERIO DE[COLOR=BLUE]||[/COLOR] [COLOR=RED]LAS PIRÁMIDES[/COLOR][/SIZE][/B]
[CODE]http://ul.to/8w1p4da4
http://ul.to/mfgqn0rz
http://ul.to/jd1z3b5q[/CODE] [/CENTER]

 

Ver Online HD

Comenta con tu Facebook :

Be the first to comment

Leave a Reply

Tu dirección de correo no será publicada.


*