La ola suprema de Tahití [HD]-[720p]-[2010]-[Dual: Esp/Ing+Sub]


La Ola Suprema de Tahiti es un documental que sigue a Kelly Slater, el 9 veces campeón del mundo, y al local tahitiano Raimana Van Bastolaer, buscando y surfeando las olas más radicales de Teahupo’o (Tahití).

Del caos provocado por las tormentas del Pacífico Sur a la perfección de las líneas de olas avanzando hacia el arrecife perfectamente esculpido de la costa tahitiana, la tecnología en 3D nos permite admirar la belleza efímera de las olas de una forma nunca vista hasta ahora.


Format : AVI
Format/Info : Audio Video Interleave
File size : 1.69 GiB
Duration : 45mn 53s
Overall bit rate : 5 279 Kbps
Recorded date : 06-09-2012
Writing application : VirtualDubMod 1.5.10.2 (build 2542/release)
Writing library : VirtualDubMod build 2542/release

Video
ID : 0
Format : MPEG-4 Visual
Format profile : Advanced [email protected]
Format settings, BVOP : 2
Format settings, QPel : No
Format settings, GMC : No warppoints
Format settings, Matrix : Default (MPEG)
Codec ID : XVID
Codec ID/Hint : XviD
Duration : 45mn 53s
Bit rate : 3 985 Kbps
Width : 1 280 pixels
Height : 720 pixels
Display aspect ratio : 16:9
Frame rate : 23.976 fps
Color space : YUV
Chroma subsampling : 4:2:0
Bit depth : 8 bits
Scan type : Progressive
Compression mode : Lossy
Bits/(Pixel*Frame) : 0.180
Stream size : 1.28 GiB (75%)
Writing library : XviD 1.2.1 (UTC 2008-12-04)

Audio #1
ID : 1
Format : AC-3
Format/Info : Audio Coding 3
Mode extension : CM (complete main)
Codec ID : 2000
Duration : 45mn 53s
Bit rate mode : Constant
Bit rate : 640 Kbps
Channel(s) : 6 channels
Channel positions : Front: L C R, Side: L R, LFE
Sampling rate : 48.0 KHz
Bit depth : 16 bits
Compression mode : Lossy
Stream size : 210 MiB (12%)
Alignment : Split accross interleaves
Interleave, duration : 42 ms (1.00 video frame)
Interleave, preload duration : 500 ms

Audio #2
ID : 2
Format : AC-3
Format/Info : Audio Coding 3
Mode extension : CM (complete main)
Codec ID : 2000
Duration : 45mn 53s
Bit rate mode : Constant
Bit rate : 640 Kbps
Channel(s) : 6 channels
Channel positions : Front: L C R, Side: L R, LFE
Sampling rate : 48.0 KHz
Bit depth : 16 bits
Compression mode : Lossy
Stream size : 210 MiB (12%)
Alignment : Split accross interleaves
Interleave, duration : 42 ms (1.00 video frame)
Interleave, preload duration : 500 ms


EN ESPAÑOL | DE ESPAÑA




LA OLA SUPREMA || DE TAHITÍ

http://ul.to/60vuj7ra
http://ul.to/8lsg0jfb
http://ul.to/bsjri1x3
http://ul.to/qpesdz5n
Ver Online HD

Comenta con tu Facebook :

Be the first to comment

Leave a Reply

Tu dirección de correo no será publicada.


*