La Mina (escondida); el Bierzo y Laziana [MP4-360p]-[2006]-[Independiente]


Documental grabado en el año 2006 en la mina “La Escondida” situada en Caboalles de Arriba, y en el pueblo de Fabero, ambos en la provincia de León. Intenta retratar el día a día del duro oficio del minero, a la vez que nos enseña los relatos de varios trabajadores, todos en diferentes momentos de su vida laboral.

Dirigido por Alejandro López Riesgo
Productor: Pedro Cachón
Conducido/Presentado por Javier Moreira
Ayte. Dirección: Jairo Pérez
Música: JLRoman
Dir. Fotografía: Sabina Asenjo

Guías en la mina “La Escondida”:
Juan Antonio Gómez
Manuel López

Mineros Entrevistados:
Gerardo Martínez
Baldomero López
Amandio Torrao
Adolfo Taimil


Format : MPEG-4
Format profile : Base Media / Version 2
Codec ID : mp42
File size : 163 MiB
Duration : 47mn 15s
Overall bit rate mode : Variable
Overall bit rate : 482 Kbps
Encoded date : UTC 2012-06-20 17:31:43
Tagged date : UTC 2012-06-20 17:31:43
gsst : 0
gstd : 2835736
gssd : B4A7D0D21MM1355829073065826
gshh : r4—sn-1gi7zn7l.c.youtube.com

Video
ID : 1
Format : AVC
Format/Info : Advanced Video Codec
Format profile : [email protected]
Format settings, CABAC : No
Format settings, ReFrames : 1 frame
Format settings, GOP : M=1, N=60
Codec ID : avc1
Codec ID/Info : Advanced Video Coding
Duration : 47mn 15s
Bit rate : 384 Kbps
Maximum bit rate : 2 444 Kbps
Width : 480 pixels
Height : 360 pixels
Display aspect ratio : 4:3
Frame rate mode : Constant
Frame rate : 25.000 fps
Color space : YUV
Chroma subsampling : 4:2:0
Bit depth : 8 bits
Scan type : Progressive
Bits/(Pixel*Frame) : 0.089
Stream size : 130 MiB (80%)
Tagged date : UTC 2012-06-20 17:31:45

Audio
ID : 2
Format : AAC
Format/Info : Advanced Audio Codec
Format profile : LC
Codec ID : 40
Duration : 47mn 15s
Bit rate mode : Variable
Bit rate : 96.0 Kbps
Maximum bit rate : 171 Kbps
Channel(s) : 2 channels
Channel positions : Front: L R
Sampling rate : 44.1 KHz
Compression mode : Lossy
Stream size : 32.4 MiB (20%)
Title : IsoMedia File Produced by Google, 5-11-2011
Encoded date : UTC 2012-06-20 17:31:44
Tagged date : UTC 2012-06-20 17:31:45



EN ESPAÑOL | DE ESPAÑA




LA MINA || EL BIERZO | LAZIANA

http://ul.to/vj9kl95b


‘’Yo soy de la época en la que un disco pirata era un disco no oficial de Led Zepelin, o de los Rolling Stones, eran estos vinilos blancos, con una fotocopia…
Para mi el disco pirata fue siempre algo difícil de conseguir, un articulo de colección, una especie de joya única’’ -Andrés Calamaro.

Ver Online HD

Comenta con tu Facebook :

Be the first to comment

Leave a Reply

Tu dirección de correo no será publicada.


*