La masacre de Denver (BBC)-(2012)-[SATRip]-[Castellano]

[center][imG]http://s5.postimage.org/th6wrlpkn/D3nv3r.png[/img]

[img]http://s5.postimage.org/4w7yk60fr/Sinopsis.png[/img]
[b]En Londres, Amal Fashanu fue una de las afortunadas poseedoras de una entrada para el estreno de la última película de Batman, titulada ‘El Caballero Oscuro: la leyenda renace’. Días más tarde se dirigía a Aurora, en las afueras de Denver, donde un brillante estudiante universitario, James Holmes, irrumpió en la sesión de medianoche con armas y gases lacrimógenos.[/b]

El resultado fue doce muertos y más de una cincuentena de heridos. Cuando lo detuvieron, se identificó a la policía como ‘El Joker’.

En el primer documental sobre la última masacre del país, Amal habla con los supervivientes y trata de conocer un poco más de la personalidad del asesino. Columbine, Virginia Tech y ahora Denver, la lista de las masacres de armas en los Estados Unidos crece imparable.

Este impactante documental recaba la opinión de los jóvenes estadounidenses sobre la propiedad de armas, un derecho protegido por la Constitución, y qué piensan sobre la aplicación de la pena de muerte en este caso concreto.

[IMG]http://s5.postimage.org/cmeqpb2rb/RIPEADO.png[/IMG]
[quote][center][b]
Format                                   : AVI

Format/Info                              : Audio Video Interleave

File size                                : 920 MiB

Duration                                 : 57mn 15s

Overall bit rate                         : 2 247 Kbps

Writing application                      : SpanishDub 1.5

Writing library                          : VirtualDub build 14328/release

 

Video

ID                                       : 0

Format                                   : MPEG-4 Visual

Format profile                           : Advanced [email protected]

Format settings, BVOP                    : No

Format settings, QPel                    : No

Format settings, GMC                     : No warppoints

Format settings, Matrix                  : Custom

Codec ID                                 : XVID

Codec ID/Hint                            : XviD

Duration                                 : 57mn 15s

Bit rate                                 : 2 110 Kbps

Width                                    : 720 pixels

Height                                   : 416 pixels

Display aspect ratio                     : 16:9

Frame rate                               : 25.000 fps

Color space                              : YUV

Chroma subsampling                       : 4:2:0

Bit depth                                : 8 bits

Scan type                                : Progressive

Compression mode                         : Lossy

Bits/(Pixel*Frame)                       : 0.282

Stream size                              : 864 MiB (94%)

Writing library                          : XviD 1.2.1 (UTC 2008-12-04)

 

Audio

ID                                       : 1

Format                                   : MPEG Audio

Format version                           : Version 1

Format profile                           : Layer 3

Mode                                     : Joint stereo

Mode extension                           : MS Stereo

Codec ID                                 : 55

Codec ID/Hint                            : MP3

Duration                                 : 57mn 15s

Bit rate mode                            : Constant

Bit rate                                 : 128 Kbps

Channel(s)                               : 2 channels

Sampling rate                            : 48.0 KHz

Compression mode                         : Lossy

Stream size                              : 52.4 MiB (6%)

Alignment                                : Aligned on interleaves

Interleave, duration                     : 40 ms (1.00 video frame)

Interleave, preload duration             : 480 ms
[img]http://uploaded.net/img/uploaded.png[/img]
PARTES DEL ARCHIVO: 1 [/b][/center][/quote]

[img]http://s5.postimage.org/w2zgbtxvb/CAPTURAS.png[/img]
[img]http://s5.postimage.org/h1a6xuw8n/B4_TMAN_LA_MA5_ACR3_D_D3_NV3_R_s.jpg[/img]

[img]http://s5.postimage.org/yj19pofxz/DOWNLOAD.png[/img]
[IMG]http://s5.postimage.org/za0fep3g3/uploaded.png[/IMG]
[B][SIZE=4]LA MASACRE DE[COLOR=BLUE]||[/COLOR] [COLOR=RED]DENVER[/COLOR][/SIZE][/B]
[CODE]http://ul.to/fko8qmsl[/CODE][/CENTER]

Ver Online HD

Comenta con tu Facebook :

Be the first to comment

Leave a Reply

Tu dirección de correo no será publicada.


*