La indústria del Porno; en España [MP4][360p][Catalán][2012]


Desde 2008 la industria del porno español vive salvo excepciones afectada por la crisis general y por la propia crisis en particular, al estar el mercado del porno más en auge en internet que en los formatos tradicionales (VHS, DVD). La crisis también afectó a los principales festivales, como el FICEB.

Durante años el cine porno en España tuvo grandes dificultades para su desarrollo. Jaime Chávarri fue el único director de cine convencional que quiso rodar porno: Regalo de cumpleaños, en 1988. Desde 1992 se inicia el auge del porno español gracias a la labor de nombres como José María Ponce, Antonio Marcos o María Bianco. En 1993 nace el FICEB barcelonés en la ciudad considerada capital del porno español; en 2005 Madrid emula a la capital catalana creando su propio festival.
El número de actores y directores ha aumentado en la primera década del siglo XXI, y algunos han cobrado relevancia en los medios de comunicación generales, como los directores Hermanos Lapiedra o , representante del porno-freak español, o el actor Nacho Vidal, actor de fama internacional.


Format : MPEG-4
Format profile : Base Media / Version 2
Codec ID : mp42
File size : 156 MiB
Duration : 34mn 25s
Overall bit rate mode : Variable
Overall bit rate : 634 Kbps

Video
ID : 1
Format : AVC
Format/Info : Advanced Video Codec
Format profile : [email protected]
Format settings, CABAC : No
Format settings, ReFrames : 1 frame
Codec ID : avc1
Codec ID/Info : Advanced Video Coding
Duration : 34mn 25s
Bit rate : 536 Kbps
Maximum bit rate : 1 399 Kbps
Width : 640 pixels
Height : 358 pixels
Display aspect ratio : 16:9
Frame rate mode : Constant
Frame rate : 25.000 fps
Color space : YUV
Chroma subsampling : 4:2:0
Bit depth : 8 bits
Scan type : Progressive
Bits/(Pixel*Frame) : 0.094
Stream size : 132 MiB (84%)
Tagged date : UTC 2012-11-20 23:54:09

Audio
ID : 2
Format : AAC
Format/Info : Advanced Audio Codec
Format profile : LC
Codec ID : 40
Duration : 34mn 25s
Bit rate mode : Variable
Bit rate : 96.0 Kbps
Maximum bit rate : 103 Kbps
Channel(s) : 2 channels
Channel positions : Front: L R
Sampling rate : 44.1 KHz
Compression mode : Lossy
Stream size : 23.6 MiB (15%)
Encoded date : UTC 2012-11-20 23:54:09
Tagged date : UTC 2012-11-20 23:54:09



EN CATALAN




LA INDUSTRIA DEL PORNO || EN ESPAÑA

http://ul.to/05hlsogz


‘’Yo soy de la época en la que un disco pirata era un disco no oficial de Led Zepelin, o de los Rolling Stones, eran estos vinilos blancos, con una fotocopia…
Para mi el disco pirata fue siempre algo difícil de conseguir, un articulo de colección, una especie de joya única’’ -Andrés Calamaro.

Ver Online HD

Comenta con tu Facebook :

1 Comment on La indústria del Porno; en España [MP4][360p][Catalán][2012]

  1. Se agradece tu aporte pero es un documental de Guardiola,
    tal vez no me hubiera enojado pero soy merengue.

Leave a Reply

Tu dirección de correo no será publicada.


*