La destruccion de Sodoma y Gomorra [MP4|360p]-[Castellano]-[2007]


Según el libro del génesis dios impuso un castigo sobre las ciudades del pecado destruyéndolas con una lluvia de fuego y azufre, la destrucción de Sodoma y Gomorra se erige como una de las grandes historias aleccionadoras del antiguo testamento.

Pero… ¿existieron realmente estas ciudades?


Format : MPEG-4
Format profile : Base Media / Version 2
Codec ID : mp42
File size : 165 MiB
Duration : 44mn 15s
Overall bit rate mode : Variable
Overall bit rate : 521 Kbps
Encoded date : UTC 2011-09-27 17:36:30
Tagged date : UTC 2011-09-27 17:36:30
gsst : 0
gstd : 2655360
gssd : B4A7D0D41HH1356172875520738
gshh : r4—sn-1gi7zn7s.c.youtube.com

Video
ID : 1
Format : AVC
Format/Info : Advanced Video Codec
Format profile : [email protected]
Format settings, CABAC : No
Format settings, ReFrames : 1 frame
Codec ID : avc1
Codec ID/Info : Advanced Video Coding
Duration : 44mn 15s
Bit rate : 421 Kbps
Maximum bit rate : 1 385 Kbps
Width : 600 pixels
Height : 360 pixels
Display aspect ratio : 1.667
Frame rate mode : Constant
Frame rate : 25.000 fps
Color space : YUV
Chroma subsampling : 4:2:0
Bit depth : 8 bits
Scan type : Progressive
Bits/(Pixel*Frame) : 0.078
Stream size : 133 MiB (81%)
Tagged date : UTC 2011-09-27 17:37:38

Audio
ID : 2
Format : AAC
Format/Info : Advanced Audio Codec
Format profile : LC
Codec ID : 40
Duration : 44mn 15s
Bit rate mode : Variable
Bit rate : 96.0 Kbps
Maximum bit rate : 117 Kbps
Channel(s) : 2 channels
Channel positions : Front: L R
Sampling rate : 44.1 KHz
Compression mode : Lossy
Stream size : 30.4 MiB (18%)
Title : IsoMedia File Produced by Google, 5-11-2011
Encoded date : UTC 2011-09-27 17:36:37
Tagged date : UTC 2011-09-27 17:37:38



EN ESPAÑOL | DE ESPAÑA




LA DESTRUCCION DE || SODOMA Y GOMORRA

Código:
http://ul.to/r2c55m1g


‘’Yo soy de la época en la que un disco pirata era un disco no oficial de Led Zepelin, o de los Rolling Stones, eran estos vinilos blancos, con una fotocopia…
Para mi el disco pirata fue siempre algo difícil de conseguir, un articulo de colección, una especie de joya única’’ -Andrés Calamaro.


ESTOS SON LOS ÚLTIMOS DOCUMENTALES QUE SUBO HASTA EL DIA 28, ES DECIR QUE NO ESTARÉ DISPONIBLE HASTA DICHA FECHA. NO PODRÉ RESPONDER NI RE-SUBIR ARCHIVOS, LO SIENTO PERO LAS FIESTAS SON LAS FIESTAS, LOS UPLOADERS TAMBIÉN LAS TENEMOS.

¡FELIZ NAVIDAD A [email protected]!
¡UN ABRAZO!

Ver Online HD

Comenta con tu Facebook :

Be the first to comment

Leave a Reply

Tu dirección de correo no será publicada.


*