La crisis en Europa y el fin del Euro [MP4|360p]-[Castellano]-[2012]


Nos hemos acostumbrado a hablar de la crisis. A mirar el futuro con inquietud.
A ver cómo los líderes europeos intentan, cumbre tras cumbre, remontar la situación. Alemania y Francia lideran una nueva unión fiscal. Reino Unido se ha apartado del resto. Ellos son el corazón de Europa, las plazas fuertes. El desencanto de los europeos es el temor a que desaparezca un modelo de bienestar y consumo que creyeron eterno.

Por eso este reportaje solo podía ser un caleidoscopio, un conjunto de rostros y voces de las tres capitales.


Format : MPEG-4
Format profile : Base Media / Version 2
Codec ID : mp42
File size : 165 MiB
Duration : 46mn 17s
Overall bit rate mode : Variable
Overall bit rate : 498 Kbps
Encoded date : UTC 2012-02-21 12:18:39
Tagged date : UTC 2012-02-21 12:18:39
gsst : 0
gstd : 2777453
gssd : B4A7D0D42MM1356048066021254
gshh : r7—sn-1gi7zn7s.c.youtube.com

Video
ID : 1
Format : AVC
Format/Info : Advanced Video Codec
Format profile : [email protected]
Format settings, CABAC : No
Format settings, ReFrames : 1 frame
Codec ID : avc1
Codec ID/Info : Advanced Video Coding
Duration : 46mn 17s
Bit rate : 399 Kbps
Maximum bit rate : 1 716 Kbps
Width : 630 pixels
Height : 360 pixels
Display aspect ratio : 16:9
Frame rate mode : Constant
Frame rate : 25.000 fps
Color space : YUV
Chroma subsampling : 4:2:0
Bit depth : 8 bits
Scan type : Progressive
Bits/(Pixel*Frame) : 0.070
Stream size : 132 MiB (80%)
Tagged date : UTC 2012-02-21 12:18:40

Audio
ID : 2
Format : AAC
Format/Info : Advanced Audio Codec
Format profile : LC
Codec ID : 40
Duration : 46mn 17s
Bit rate mode : Variable
Bit rate : 96.0 Kbps
Maximum bit rate : 124 Kbps
Channel(s) : 2 channels
Channel positions : Front: L R
Sampling rate : 44.1 KHz
Compression mode : Lossy
Stream size : 31.8 MiB (19%)
Title : IsoMedia File Produced by Google, 5-11-2011
Encoded date : UTC 2012-02-21 12:18:40
Tagged date : UTC 2012-02-21 12:18:40



EN ESPAÑOL | DE ESPAÑA




CRISIS EN EUROPA || EL FIN DEL EURO

Código:
http://ul.to/6dlms6aq


‘’Yo soy de la época en la que un disco pirata era un disco no oficial de Led Zepelin, o de los Rolling Stones, eran estos vinilos blancos, con una fotocopia…
Para mi el disco pirata fue siempre algo difícil de conseguir, un articulo de colección, una especie de joya única’’ -Andrés Calamaro.


ESTOS SON LOS ÚLTIMOS DOCUMENTALES QUE SUBO HASTA EL DIA 28, ES DECIR QUE NO ESTARÉ DISPONIBLE HASTA DICHA FECHA. NO PODRÉ RESPONDER NI RE-SUBIR ARCHIVOS, LO SIENTO PERO LAS FIESTAS SON LAS FIESTAS, LOS UPLOADERS TAMBIÉN LAS TENEMOS.

¡FELIZ NAVIDAD A [email protected]!
¡UN ABRAZO!

Ver Online HD

Comenta con tu Facebook :

Be the first to comment

Leave a Reply

Tu dirección de correo no será publicada.


*