La Ciudad perdida del Faraón [MP4|360p]-[Castellano]-[2012]


Un grupo de arqueólogos dirige un proyecto de investigación en Amarna donde, hace 3500 años, Akenatón, casado con Nefertiti, levantó en poco tiempo una gran metrópolis dedicada al culto del poder del sol, el Dios Atón.


Format : MPEG-4
Format profile : Base Media / Version 2
Codec ID : mp42
File size : 191 MiB
Duration : 47mn 18s
Overall bit rate mode : Variable
Overall bit rate : 566 Kbps
Encoded date : UTC 2012-12-17 13:17:40
Tagged date : UTC 2012-12-17 13:17:40
gsst : 0
gstd : 2838196
gssd : B4A7DD1C1MM1356045575649208
gshh : r1—sn-5hn7su7k.c.youtube.com

Video
ID : 1
Format : AVC
Format/Info : Advanced Video Codec
Format profile : [email protected]
Format settings, CABAC : No
Format settings, ReFrames : 1 frame
Codec ID : avc1
Codec ID/Info : Advanced Video Coding
Duration : 47mn 18s
Bit rate : 468 Kbps
Maximum bit rate : 2 333 Kbps
Width : 640 pixels
Height : 360 pixels
Display aspect ratio : 16:9
Frame rate mode : Constant
Frame rate : 25.000 fps
Color space : YUV
Chroma subsampling : 4:2:0
Bit depth : 8 bits
Scan type : Progressive
Bits/(Pixel*Frame) : 0.081
Stream size : 158 MiB (83%)
Tagged date : UTC 2012-12-17 13:17:42

Audio
ID : 2
Format : AAC
Format/Info : Advanced Audio Codec
Format profile : LC
Codec ID : 40
Duration : 47mn 18s
Bit rate mode : Variable
Bit rate : 96.0 Kbps
Maximum bit rate : 103 Kbps
Channel(s) : 2 channels
Channel positions : Front: L R
Sampling rate : 44.1 KHz
Compression mode : Lossy
Stream size : 32.5 MiB (17%)
Title : IsoMedia File Produced by Google, 5-11-2011
Encoded date : UTC 2012-12-17 13:17:42
Tagged date : UTC 2012-12-17 13:17:42



EN ESPAÑOL | DE ESPAÑA




LA CIUDAD PERDIDA || DEL FARAON

Código:
http://ul.to/0mbkk2op


‘’Yo soy de la época en la que un disco pirata era un disco no oficial de Led Zepelin, o de los Rolling Stones, eran estos vinilos blancos, con una fotocopia…
Para mi el disco pirata fue siempre algo difícil de conseguir, un articulo de colección, una especie de joya única’’ -Andrés Calamaro.


ESTOS SON LOS ÚLTIMOS DOCUMENTALES QUE SUBO HASTA EL DIA 28, ES DECIR QUE NO ESTARÉ DISPONIBLE HASTA DICHA FECHA. NO PODRÉ RESPONDER NI RE-SUBIR ARCHIVOS, LO SIENTO PERO LAS FIESTAS SON LAS FIESTAS, LOS UPLOADERS TAMBIÉN LAS TENEMOS.

¡FELIZ NAVIDAD A [email protected]!
¡UN ABRAZO!

Ver Online HD

Comenta con tu Facebook :

Be the first to comment

Leave a Reply

Tu dirección de correo no será publicada.


*