La cara oculta de Hiroshima [RTVE]-[2011]-[SATRip]-[Castellano]

[center][imG]http://s5.postimage.org/vq1o9y6yf/nagasakibomb.png[/img]

[img]http://s5.postimage.org/4w7yk60fr/Sinopsis.png[/img]
[B]La investigación histórica del documental propone un cambio de punto de vista radical sobre Hiroshima y Nagasaki.
En él, se muestra por primera vez como el proyecto continuó tras la bomba y las ciudades se convirtieron en laboratorios y centros de investigación.[/B]

[IMG]http://s5.postimage.org/iaenkhygn/HIROSHIMA_CALIDAD.png[/IMG]

[IMG]http://s5.postimage.org/cmeqpb2rb/RIPEADO.png[/IMG]
[quote][center][b]
Format : AVI

Format/Info : Audio Video Interleave

File size : 996 MiB

Duration : 1h 25mn

Overall bit rate : 1 622 Kbps

Writing application : VirtualDubMod 1.5.4.1 (build 2178/release)

Writing library : VirtualDubMod build 2178/release

Video

ID : 0

Format : MPEG-4 Visual

Format profile : Advanced [email protected]

Format settings, BVOP : 1

Format settings, QPel : No

Format settings, GMC : No warppoints

Format settings, Matrix : Custom

Codec ID : XVID

Codec ID/Hint : XviD

Duration : 1h 25mn

Bit rate : 1 487 Kbps

Width : 720 pixels

Height : 400 pixels

Display aspect ratio : 16:9

Frame rate : 25.000 fps

Color space : YUV

Chroma subsampling : 4:2:0

Bit depth : 8 bits

Scan type : Progressive

Compression mode : Lossy

Bits/(Pixel*Frame) : 0.207

Stream size : 913 MiB (92%)

Writing library : XviD 1.2.1 (UTC 2008-12-04)

Audio

ID : 1

Format : MPEG Audio

Format version : Version 1

Format profile : Layer 3

Mode : Joint stereo

Mode extension : MS Stereo

Codec ID : 55

Codec ID/Hint : MP3

Duration : 1h 25mn

Bit rate mode : Constant

Bit rate : 128 Kbps

Channel(s) : 2 channels

Sampling rate : 48.0 KHz

Compression mode : Lossy

Stream size : 78.6 MiB (8%)

Alignment : Aligned on interleaves

Interleave, duration : 80 ms (2.00 video frames)

Interleave, preload duration : 504 ms
Writing library : LAME3.98.2

[IMG]http://s5.postimage.org/c8kcfux83/flag_spain.png[/IMG]
[B]EN ESPAÑOL | DE ESPAÑA[/B] [/b][/center][/quote]

[img]http://s5.postimage.org/w2zgbtxvb/CAPTURAS.png[/img]
[img]http://s5.postimage.org/5gglr5l13/C4_R4_0_CULTA_D_Hl_R0xl_MA_s.jpg[/img]

[img]http://s5.postimage.org/yj19pofxz/DOWNLOAD.png[/img]
[url=http://ul.to/ref/7172673][img]http://uploaded.net/img/uploaded.png[/img][/url]
[B][SIZE=4]LA CARA OCULTA[COLOR=BLUE] || [/COLOR][COLOR=RED]DE HIROSHIMA[/COLOR][/SIZE][/B]
[CODE]http://ul.to/xknls3m3
http://ul.to/0rrzs73k[/CODE]

[IMG]http://s5.postimage.org/dz3dhcerb/CULTURA.png[/IMG]
[B]‘’Yo soy de la época en la que un disco pirata era un disco no oficial de Led Zepelin, o de los Rolling Stones, eran estos vinilos blancos, con una fotocopia…
Para mi el disco pirata fue siempre algo difícil de conseguir, un articulo de colección, una especie de joya única’’ -Andrés Calamaro.[/B][/CENTER]

Ver Online HD

Comenta con tu Facebook :

Be the first to comment

Leave a Reply

Tu dirección de correo no será publicada.


*