La Búsqueda de Rudolf Hess [SATRip]-[C.Historia]-[Castellano]-[UL]

[center][imG]http://s5.postimage.org/7u0u71c53/4_Bundesarchiv_Rudolf_Hess.png[/img]

[img]http://s5.postimage.org/4w7yk60fr/Sinopsis.png[/img]
[b]¿Qué motivó la decisión de Rudolf Hess de volar hasta Inglaterra?[/b]

Hay muchas elucubraciones al respecto. Algunos argumentan sólidamente que era un plan premeditado de Hitler para buscar la paz con Inglaterra ya que tras la operación Barbarroja tendría que lidiar en dos frentes.

Otros arguyen que fue una iniciativa propia, de la cual Hitler tenía algún conocimiento y, aunque se mantuvo al margen, tampoco la obstaculizó.

El hecho cierto es que Hess voló en un Messerschmitt Bf 110 desde Augsburgo a Escocia el 10 de mayo de 1941, (según versión del propio Hess era su tercer intento) para tratar de pactar la paz con el Reino Unido y así cambiar el curso de la guerra al poder concentrar al ejército alemán en un solo frente contra la URSS.

[IMG]http://s5.postimage.org/cmeqpb2rb/RIPEADO.png[/IMG]
[quote][center][b]
Format                                   : AVI

Format/Info                              : Audio Video Interleave

File size                                : 350 MiB

Duration                                 : 44mn 46s

Overall bit rate                         : 1 094 Kbps

 

Video

ID                                       : 0

Format                                   : MPEG-4 Visual

Format settings, BVOP                    : 1

Format settings, QPel                    : No

Format settings, GMC                     : No warppoints

Format settings, Matrix                  : Default (H.263)

Muxing mode                              : Packed bitstream

Codec ID                                 : DX50

Codec ID/Hint                            : DivX 5

Duration                                 : 44mn 46s

Bit rate                                 : 988 Kbps

Width                                    : 512 pixels

Height                                   : 384 pixels

Display aspect ratio                     : 4:3

Frame rate                               : 25.000 fps

Color space                              : YUV

Chroma subsampling                       : 4:2:0

Bit depth                                : 8 bits

Scan type                                : Progressive

Compression mode                         : Lossy

Bits/(Pixel*Frame)                       : 0.201

Stream size                              : 316 MiB (90%)

Writing library                          : DivX 5.2.1 (DrDivX 106) (UTC 2004-09-08)

 

Audio

ID                                       : 1

Format                                   : MPEG Audio

Format version                           : Version 1

Format profile                           : Layer 3

Codec ID                                 : 55

Codec ID/Hint                            : MP3

Duration                                 : 44mn 46s

Bit rate mode                            : Constant

Bit rate                                 : 96.0 Kbps

Channel(s)                               : 2 channels

Sampling rate                            : 44.1 KHz

Compression mode                         : Lossy

Delay relative to video                  : 26ms

Stream size                              : 30.7 MiB (9%)

Alignment                                : Split accross interleaves

Interleave, duration                     : 40 ms (1.00 video frame)

Title                                    : Audio Stream

[img]http://uploaded.net/img/uploaded.png[/img]
PARTES DEL ARCHIVO: 1[/b][/center][/quote]

[img]http://s5.postimage.org/w2zgbtxvb/CAPTURAS.png[/img]
[img]http://s5.postimage.org/uu6zcggjb/LABUSQU3_DA_D_R_HESS_s.jpg[/img]

[img]http://s5.postimage.org/yj19pofxz/DOWNLOAD.png[/img]
[IMG]http://s5.postimage.org/za0fep3g3/uploaded.png[/IMG]
[B][SIZE=4]LA BÚSQUEDA DE[COLOR=BLUE]||[/COLOR] [COLOR=RED]RUDOLF HESS[/COLOR][/SIZE][/B]
[CODE]http://ul.to/vwn70f9e[/CODE][/CENTER]

Ver Online HD

Comenta con tu Facebook :

Be the first to comment

Leave a Reply

Tu dirección de correo no será publicada.


*