Jóvenes por una Ciudadanía Global [MP4|720p]-[2012]-[Castellano]


El proyecto de sensibilización creado por la Liga Española de la Educación con la financiación de la Agencia Española de Cooperación Internacional para el Desarrollo, llega a la decena de ciudades visitadas donde a través de ponencias y vídeos trata de concienciar a los adolescentes de qué hace falta y porqué es necesario ser un Ciudadano Global.


Format : MPEG-4
Format profile : Base Media / Version 2
Codec ID : mp42
File size : 501 MiB
Duration : 37mn 47s
Overall bit rate mode : Variable
Overall bit rate : 1 854 Kbps
Encoded date : UTC 2012-04-23 03:09:53
Tagged date : UTC 2012-04-23 03:09:53
gsst : 0
gstd : 2267241
gssd : B4A7DD1E7MM1355825519563622
gshh : r7—sn-5hn7su7r.c.youtube.com

Video
ID : 1
Format : AVC
Format/Info : Advanced Video Codec
Format profile : [email protected]
Format settings, CABAC : Yes
Format settings, ReFrames : 1 frame
Codec ID : avc1
Codec ID/Info : Advanced Video Coding
Duration : 37mn 47s
Bit rate : 1 699 Kbps
Maximum bit rate : 7 942 Kbps
Width : 1 280 pixels
Height : 720 pixels
Display aspect ratio : 16:9
Frame rate mode : Constant
Frame rate : 25.000 fps
Color space : YUV
Chroma subsampling : 4:2:0
Bit depth : 8 bits
Scan type : Progressive
Bits/(Pixel*Frame) : 0.074
Stream size : 459 MiB (92%)
Tagged date : UTC 2012-04-23 03:10:37

Audio
ID : 2
Format : AAC
Format/Info : Advanced Audio Codec
Format profile : LC
Codec ID : 40
Duration : 37mn 47s
Bit rate mode : Variable
Bit rate : 152 Kbps
Maximum bit rate : 243 Kbps
Channel(s) : 2 channels
Channel positions : Front: L R
Sampling rate : 44.1 KHz
Compression mode : Lossy
Stream size : 41.1 MiB (8%)
Title : IsoMedia File Produced by Google, 5-11-2011
Encoded date : UTC 2012-04-23 03:10:22
Tagged date : UTC 2012-04-23 03:10:37



EN ESPAÑOL | DE ESPAÑA




JÓVENES PARA UNA || CIUDADANÍA GLOBAL

http://ul.to/6ugtte5d


‘’Yo soy de la época en la que un disco pirata era un disco no oficial de Led Zepelin, o de los Rolling Stones, eran estos vinilos blancos, con una fotocopia…
Para mi el disco pirata fue siempre algo difícil de conseguir, un articulo de colección, una especie de joya única’’ -Andrés Calamaro.

Ver Online HD

Comenta con tu Facebook :

Be the first to comment

Leave a Reply

Tu dirección de correo no será publicada.


*