Inteligencia Animal [SATRip][Odisea][Castellano][2011]

[IMG]

[IMG]
A pesar de que todavía no está previsto que las mascotas vayan a la universidad, este impresionante documental demuestra que algunas especies animales son mucho más inteligentes de lo que suponíamos y de formas que nunca habríamos imaginado. Además, cuando se trata de nuestras propias mascotas, es muy tentador imaginar que tienen pensamientos y sentimientos humanos.

Sin embargo, durante años los investigadores siempre se han mostrado escépticos sobre la capacidad de la inteligencia animal. Después de todo, los seres humanos hablan, escriben, resuelven puzzles y construyen naves espaciales. Hoy en día, a medida que ponemos a prueba a cada vez más animales y entendemos sus esquemas de pensamiento, llegamos a resultados cada vez más sorprendentes. ¿Se atrevería a medir su ingenio con un perro, un pulpo, un delfín o un loro? Después de ver este documental, a lo mejor se lo piensa dos veces antes de aceptar el reto.

[IMG]
Cita:
Format : AVI
Format/Info : Audio Video Interleave
File size : 850 MiB
Duration : 52mn 26s
Overall bit rate : 2 266 Kbps

Video
ID : 0
Format : MPEG-4 Visual
Format profile : Advanced [email protected]
Format settings, BVOP : 1
Format settings, QPel : No
Format settings, GMC : No warppoints
Format settings, Matrix : Custom
Codec ID : XVID
Codec ID/Hint : XviD
Duration : 52mn 26s
Bit rate : 2 131 Kbps
Width : 720 pixels
Height : 400 pixels
Display aspect ratio : 16:9
Frame rate : 25.000 fps
Color space : YUV
Chroma subsampling : 4:2:0
Bit depth : 8 bits
Scan type : Progressive
Compression mode : Lossy
Bits/(Pixel*Frame) : 0.296
Stream size : 799 MiB (94%)
Writing library : XviD 1.2.1 (UTC 2008-12-04)

Audio
ID : 1
Format : MPEG Audio
Format version : Version 1
Format profile : Layer 3
Mode : Joint stereo
Mode extension : MS Stereo
Codec ID : 55
Codec ID/Hint : MP3
Duration : 52mn 26s
Bit rate mode : Constant
Bit rate : 128 Kbps
Channel(s) : 2 channels
Sampling rate : 48.0 KHz
Compression mode : Lossy
Stream size : 48.0 MiB (6%)
Alignment : Aligned on interleaves
Interleave, duration : 80 ms (2.00 video frames)
Interleave, preload duration : 504 ms

[IMG]
EN ESPAÑOL | DE ESPAÑA

[IMG]
[IMG]

[IMG]
[IMG]
INTELIGENCIA || ANIMAL

[IMG]
‘’Yo soy de la época en la que un disco pirata era un disco no oficial de Led Zepelin, o de los Rolling Stones, eran estos vinilos blancos, con una fotocopia…
Para mi el disco pirata fue siempre algo difícil de conseguir, un articulo de colección, una especie de joya única’’ -Andrés Calamaro.

Ver Online HD

Comenta con tu Facebook :

Be the first to comment

Leave a Reply

Tu dirección de correo no será publicada.


*