In Time (2011) 720p BRRip Xvid Dual Latino Ac3 5.1

SINOPSIS

Ambientada en una sociedad futura. El hallazgo de una fórmula contra el envejecimiento trae consigo no sólo superpoblación, sino también la transformación del tiempo en moneda de cambio que permite sufragar tanto lujos como necesidades. Los ricos pueden vivir para siempre, pero los demás tendrán que negociar cada minuto de vida. Después de conseguir, por casualidad, una inmensa cantidad de tiempo, un obrero será perseguido por unos policías corruptos conocidos como “los guardianes del tiempo”…

INFORMATION

Titulo Original: In Time
Titulo En Español: El Precio Del Mañana
Año: 2011
Pais: Usa
Idmb: 6.6/10
Reparto:Cillian Murphy, Justin Timberlake, Amanda Seyfried,Shyloh Oostwald, Johnny Galecki,Colin McGurk.

NFO

General

Complete name : files/In.Time.2011.720p.BRRip.LATiNO.ENG.XviD.AC3-ViSiON.avi
Format : AVI
Format/Info : Audio Video Interleave
Format profile : OpenDML
File size : 2.92 GiB
Duration : 1h 49mn
Overall bit rate : 3 827 Kbps
Movie name : In.Time.2011.720p.BRRip.LATiNO.ENG.XviD.AC3-ViSiON
Director : WwW.IntercambiosVirtuales.ORG
Recorded date : 19-01-2012
Writing application : VirtualDubMod 1.5.10.2 (build 2542/release)
Writing library : VirtualDubMod build 2542/release

Video

ID : 0
Format : MPEG-4 Visual
Format profile : Advanced [email protected]
Format settings, BVOP : Yes
Format settings, QPel : No
Format settings, GMC : No warppoints
Format settings, Matrix : Custom
Muxing mode : Packed bitstream
Codec ID : XVID
Codec ID/Hint : XviD
Duration : 1h 49mn
Bit rate : 3 171 Kbps
Width : 1 280 pixels
Height : 544 pixels
Display aspect ratio : 2.35:1
Frame rate : 23.976 fps
Color space : YUV
Chroma subsampling : 4:2:0
Bit depth : 8 bits
Scan type : Progressive
Bits/(Pixel*Frame) : 0.190
Stream size : 2.42 GiB (83%)
Writing library : XviD 1.2.1 (UTC 2008-12-04)

Audio #1

ID : 1
Format : AC-3
Format/Info : Audio Coding 3
Format profile : Dolby Digital
Mode extension : CM (complete main)
Codec ID : 2000
Duration : 1h 49mn
Bit rate mode : Constant
Bit rate : 192 Kbps
Channel(s) : 2 channels
Channel positions : Front: L R
Sampling rate : 48.0 KHz
Bit depth : 16 bits
Video delay : 2s 0ms
Stream size : 150 MiB (5%)
Alignment : Split accross interleaves
Interleave, duration : 42 ms (1.00 video frame)
Interleave, preload duration : 500 ms

Audio #2

ID : 2
Format : AC-3
Format/Info : Audio Coding 3
Mode extension : CM (complete main)
Codec ID : 2000
Duration : 1h 49mn
Bit rate mode : Constant
Bit rate : 448 Kbps
Channel(s) : 6 channels
Channel positions : Front: L C R, Side: L R, LFE
Sampling rate : 48.0 KHz
Bit depth : 16 bits
Stream size : 350 MiB (12%)
Alignment : Split accross interleaves
Interleave, duration : 42 ms (1.00 video frame)
Interleave, preload duration : 500 ms

CLICK ACA PARA VER TRAILER

Capturas Click aca!!

DESCARGAR

DESCARGAR FILESONIC

DESCARGAR FILESERVE

Ver Links

Ver Links

Ver Links

CONTRASEÑA: eacc95

COMENTA POR FAVOR!!

Ver Online HD

Comenta con tu Facebook :

Be the first to comment

Leave a Reply

Tu dirección de correo no será publicada.


*