Hitler y la Alta Tecnología [MP4|360p]-[Castellano]-[2006]-[C.Historia]


¿Fue posible que durante el régimen nazi la ciencia lograse algo bueno? ¿Por qué la ciencia y la tecnología prosperaron durante esa época?

Cuando Hitler llegó al poder, Alemania era uno de los países con mayor desarrollo tecnológico del mundo. Durante este programa examinaremos cinco avances científicos cruciales realizados durante el período nazi que todavía tienen impacto hoy en día. Los científicos del régimen del führer fueron los primeros en establecer una relación directa entre el tabaco y el cáncer. Hitler explotó el descubrimiento de los equipos de grabación de Alta Fidelidad para impulsar las emisiones de la propaganda nazi.

El primer avión caza voló en Alemania, finalmente encargado por Hitler, pero demasiado tarde para ganar la guerra en el cielo. Con el avión caza también llegó el primer asiento eyectable para el piloto. Incluso el microscopio electrónico, uno de los grandes inventos del siglo XX, se realizó en Alemania, aunque los nazis lo ignoraron.

El documental narra la verdadera historia de los logros científicos y de los errores de la Alemania nazi de Hitler.


Format : MPEG-4
Format profile : Base Media / Version 2
Codec ID : mp42
File size : 171 MiB
Duration : 44mn 54s
Overall bit rate mode : Variable
Overall bit rate : 532 Kbps
Encoded date : UTC 2012-03-31 01:56:25
Tagged date : UTC 2012-03-31 01:56:25
gsst : 0
gstd : 2694350
gssd : B4A7D0D42HH1355826554992225
gshh : r7—sn-1gi7zn7s.c.youtube.com

Video
ID : 1
Format : AVC
Format/Info : Advanced Video Codec
Format profile : [email protected]
Format settings, CABAC : No
Format settings, ReFrames : 1 frame
Codec ID : avc1
Codec ID/Info : Advanced Video Coding
Duration : 44mn 54s
Bit rate : 433 Kbps
Maximum bit rate : 1 488 Kbps
Width : 540 pixels
Height : 360 pixels
Display aspect ratio : 3:2
Frame rate mode : Constant
Frame rate : 30.000 fps
Color space : YUV
Chroma subsampling : 4:2:0
Bit depth : 8 bits
Scan type : Progressive
Bits/(Pixel*Frame) : 0.074
Stream size : 139 MiB (81%)
Tagged date : UTC 2012-03-31 01:56:26

Audio
ID : 2
Format : AAC
Format/Info : Advanced Audio Codec
Format profile : LC
Codec ID : 40
Duration : 44mn 54s
Bit rate mode : Variable
Bit rate : 96.0 Kbps
Maximum bit rate : 112 Kbps
Channel(s) : 2 channels
Channel positions : Front: L R
Sampling rate : 44.1 KHz
Compression mode : Lossy
Stream size : 30.8 MiB (18%)
Title : IsoMedia File Produced by Google, 5-11-2011
Encoded date : UTC 2012-03-31 01:56:25
Tagged date : UTC 2012-03-31 01:56:26



EN ESPAÑOL | DE ESPAÑA




HITLER Y || LA ALTA TECNOLOGÍA

http://ul.to/z8t4qzm0
Ver Online HD

Comenta con tu Facebook :

Be the first to comment

Leave a Reply

Tu dirección de correo no será publicada.


*