Estrellas del Porno [Odisea]-[2011]-[SATRip]-[Castellano]

[center][imG]http://s5.postimage.org/bsddi0uk7/wallls.png[/img]

[img]http://s5.postimage.org/4w7yk60fr/Sinopsis.png[/img]
[B]Los premios de la academia AVN (Adult Video News) sobre el cine porno adquieren cada año mayor relevancia. El dinero que se mueve en este tipo de industria, tanto en producción como en ventas es tremendamente alto.
A través de este documental presentaremos cómo se hacen este tipo de pelí­culas, la selección de actores, qué tipo de público consume este producto y todo su entramado interno[/B]

[IMG]http://s5.postimage.org/cmeqpb2rb/RIPEADO.png[/IMG]
[quote][center][b]
Format                                   : AVI

Format/Info                              : Audio Video Interleave

File size                                : 485 MiB

Duration                                 : 52mn 55s

Overall bit rate                         : 1 281 Kbps

Writing application                      : VirtualDubMod 1.5.4.1 (build 2178/release)

Writing library                          : VirtualDubMod build 2178/release

 

Video

ID                                       : 0

Format                                   : MPEG-4 Visual

Format profile                           : Advanced [email protected]

Format settings, BVOP                    : 1

Format settings, QPel                    : No

Format settings, GMC                     : No warppoints

Format settings, Matrix                  : Custom

Codec ID                                 : XVID

Codec ID/Hint                            : XviD

Duration                                 : 52mn 55s

Bit rate                                 : 1 178 Kbps

Width                                    : 528 pixels

Height                                   : 400 pixels

Display aspect ratio                     : 4:3

Frame rate                               : 25.000 fps

Color space                              : YUV

Chroma subsampling                       : 4:2:0

Bit depth                                : 8 bits

Scan type                                : Progressive

Compression mode                         : Lossy

Bits/(Pixel*Frame)                       : 0.223

Stream size                              : 446 MiB (92%)

Writing library                          : XviD 1.1.2 (UTC 2006-11-01)

 

Audio

ID                                       : 1

Format                                   : MPEG Audio

Format version                           : Version 1

Format profile                           : Layer 3

Mode                                     : Joint stereo

Mode extension                           : MS Stereo

Codec ID                                 : 55

Codec ID/Hint                            : MP3

Duration                                 : 52mn 55s

Bit rate mode                            : Constant

Bit rate                                 : 96.0 Kbps

Channel(s)                               : 2 channels

Sampling rate                            : 32.0 KHz

Compression mode                         : Lossy

Stream size                              : 36.3 MiB (7%)

Alignment                                : Aligned on interleaves

Interleave, duration                     : 80 ms (2.00 video frames)

Interleave, preload duration             : 504 ms

Writing library                          : LAME

[IMG]http://s5.postimage.org/c8kcfux83/flag_spain.png[/IMG]
[B]EN ESPAÑOL | DE ESPAÑA[/B] [/b][/center][/quote]

[img]http://s5.postimage.org/w2zgbtxvb/CAPTURAS.png[/img]
[img]http://s5.postimage.org/4b462t513/S3_X_3_STR3_LLA5_DL_P0_RN_s.jpg[/img]

[img]http://s5.postimage.org/yj19pofxz/DOWNLOAD.png[/img]
[url=http://ul.to/ref/7172673][img]http://uploaded.net/img/uploaded.png[/img][/url]
[B][SIZE=4]ESTRELLAS[COLOR=BLUE] || [/COLOR][COLOR=RED]DEL PORNO[/COLOR][/SIZE][/B]
[CODE]http://ul.to/unibw8zv[/CODE]

[IMG]http://s5.postimage.org/dz3dhcerb/CULTURA.png[/IMG]
[B]‘’Yo soy de la época en la que un disco pirata era un disco no oficial de Led Zepelin, o de los Rolling Stones, eran estos vinilos blancos, con una fotocopia…
Para mi el disco pirata fue siempre algo difícil de conseguir, un articulo de colección, una especie de joya única’’ -Andrés Calamaro.[/B]
[/CENTER]

Ver Online HD

Comenta con tu Facebook :

Be the first to comment

Leave a Reply

Tu dirección de correo no será publicada.


*