Epic – El mundo secreto (2013) [HDRip][Castellano Ac3 5.1][Animación][UL – CLZ – JC]

País Estados Unidos Estados Unidos
Director Chris Wedge
Guión Daniel Shere, Tom J. Astle, Matt Ember, James V. Hart (Libro: William Joyce)
Música Danny Elfman
Fotografía Renato Falcão
Reparto Animation
Productora 0th Century Fox Animation / Blue Sky Studios
Género Animación. Aventuras. Fantástico | Naturaleza. 3-D

Idioma: Castellano Ac3 5.1
Tamaño: 1600Mb
Formato De Video: AVI
Formato de Archivo: RAR (Desacomprimir)
Calidad de Video: HDRip
Resolucion: 720×304
Codec: XVID

Historia sobre la interminable batalla entre las fuerzas del bien, encargadas de mantener la
vida, y las fuerzas del mal, que pretenden destruirla. Mary Katherine (Amanda Seyfried) es
una adolescente que intenta reanudar la relación con su padre el Profesor Bomba (Jason
Sudeikis), un científico cuya obsesión es descubrir una diminuta sociedad secreta que habita
en el bosque. Esta idea a su hija le parece disparatada hasta que, inesperadamente, es
transportada a ese universo secreto, donde se está librando una batalla entre los Hombres
Hoja y los Boggans.

Código:
General
Complete name                            : /home/nuevecoo/public_html/files/Epic.HDRip.avi
Format                                   : AVI
Format/Info                              : Audio Video Interleave
File size                                : 1.57 GiB
Duration                                 : 1h 42mn
Overall bit rate                         : 2 192 Kbps
Writing application                      : VirtualDubMod 1.5.10.2 (build 2540/release)
Writing library                          : VirtualDubMod build 2540/release

Video
ID                                       : 0
Format                                   : MPEG-4 Visual
Format profile                           : Advanced [email protected]
Format settings, BVOP                    : 2
Format settings, QPel                    : No
Format settings, GMC                     : No warppoints
Format settings, Matrix                  : Default (MPEG)
Codec ID                                 : XVID
Codec ID/Hint                            : XviD
Duration                                 : 1h 42mn
Bit rate                                 : 1 798 Kbps
Width                                    : 720 pixels
Height                                   : 304 pixels
Display aspect ratio                     : 2.35:1
Frame rate                               : 23.976 fps
Color space                              : YUV
Chroma subsampling                       : 4:2:0
Bit depth                                : 8 bits
Scan type                                : Progressive
Compression mode                         : Lossy
Bits/(Pixel*Frame)                       : 0.343
Stream size                              : 1.29 GiB (82%)
Writing library                          : XviD 1.2.1 (UTC 2008-12-04)

Audio
ID                                       : 1
Format                                   : AC-3
Format/Info                              : Audio Coding 3
Mode extension                           : CM (complete main)
Codec ID                                 : 2000
Duration                                 : 1h 42mn
Bit rate mode                            : Constant
Bit rate                                 : 384 Kbps
Channel(s)                               : 6 channels
Channel positions                        : Front: L C R, Side: L R, LFE
Sampling rate                            : 48.0 KHz
Bit depth                                : 16 bits
Compression mode                         : Lossy
Stream size                              : 281 MiB (18%)
Alignment                                : Split accross interleaves
Interleave, duration                     : 42 ms (1.00 video frame)
Interleave, preload duration             : 500 ms

http://notepad.cc/share/119gKb1w7h

Ver Online HD

Comenta con tu Facebook :

Be the first to comment

Leave a Reply

Tu dirección de correo no será publicada.


*