En el vientre materno | Gemelos identicos (NatGeo)[MP4][720p][Castellano][2010]


Al nacer del mismo óvulo fertilizado no es sorprendente que la mayoría de gemelos idénticos conserven un aspecto físico similar a medida q crecen. La influencia genética va más allá de lo que vemos.

‘En el vientre materno: gemelos idénticos’ describe este fenómeno, llamado “síndrome del gemelo desaparecido”. Algunos científicos creen que este fenómeno es más frecuente de lo que se piensa y apuntan también a que algunos zurdos pueden ser la “mitad superviviente” de una pareja de gemelos que nunca llegó a materializarse.

El documental utiliza avanzada tecnología generada por ordenador para rastrear los antecedentes de un embarazo múltiple, desde el desarrollo de dos óvulos fertilizados, hasta el fenómeno – una posibilidad entre 64 millones –, de un embarazo de cuatrillizos.

El especial muestra la división de un embrión que formará gemelos.


Format : Matroska
Format version : Version 2
File size : 784 MiB
Duration : 47mn 24s
Overall bit rate : 2 313 Kbps
Encoded date : UTC 2012-11-18 17:10:25
Writing application : mkvmerge v4.8.0 (‘I Got The…’) built on May 24 2011 03:12:58
Writing library : libebml v1.2.0 + libmatroska v1.1.0

Video
ID : 1
Format : AVC
Format/Info : Advanced Video Codec
Format profile : [email protected]
Format settings, CABAC : Yes
Format settings, ReFrames : 4 frames
Muxing mode : Header stripping
Codec ID : V_MPEG4/ISO/AVC
Duration : 47mn 24s
Bit rate : 2 107 Kbps
Width : 1 280 pixels
Height : 720 pixels
Display aspect ratio : 16:9
Frame rate : 25.000 fps
Color space : YUV
Chroma subsampling : 4:2:0
Bit depth : 8 bits
Scan type : Progressive
Bits/(Pixel*Frame) : 0.091
Stream size : 714 MiB (91%)
Title : x264
Writing library : x264 core 129 r2230 1cffe9f
Language : Spanish

Audio
ID : 2
Format : MPEG Audio
Format version : Version 1
Format profile : Layer 2
Mode : Joint stereo
Muxing mode : Header stripping
Codec ID : A_MPEG/L2
Codec ID/Hint : MP2
Duration : 47mn 24s
Bit rate mode : Constant
Bit rate : 160 Kbps
Channel(s) : 2 channels
Sampling rate : 48.0 KHz
Compression mode : Lossy
Delay relative to video : 48ms
Stream size : 54.3 MiB (7%)
Title : Spanish
Language : Spanish


EN ESPAÑOL | DE ESPAÑA




EN EL VIENTRE MATERNO || GEMELOS IDÉNTICOS

http://ul.to/omg85lrp
http://ul.to/y5q0xqeb


‘’Yo soy de la época en la que un disco pirata era un disco no oficial de Led Zepelin, o de los Rolling Stones, eran estos vinilos blancos, con una fotocopia…
Para mi el disco pirata fue siempre algo difícil de conseguir, un articulo de colección, una especie de joya única’’ -Andrés Calamaro.

Ver Online HD

Comenta con tu Facebook :

Be the first to comment

Leave a Reply

Tu dirección de correo no será publicada.


*